Скачать через торрент музыку Aldo Romano Louis Sclavis бесплатно без регистрации torrent

Если у вас наблюдаются проблемы со скриншотами, переходом по ссылками, скачиванием торрентов - проблемы в блокировщике рекламы AdBlock. #хорошегоДня!


Статистика раздачи
Размер:  390 MB   |    Зарегистрирован:  5 лет 8 месяцев   |    .torrent скачан:  27 раз   |   
Раздают:  1  
   
Загрузка...
 
Автор Сообщение

Umakiro

avatar Umakiro


Aldo Romano / Louis Sclavis / Henri Texier - Suite Africaine
Жанр: Free-Jazz / Avant-Garde / Ethnic
Год издания диска: 1999
Издатель (лейбл): Label Bleu
Номер по каталогу: LBLC 6609
Аудио кодек: FLAC (*.flac)
Тип рипа: tracks+.cue
Битрейт аудио: lossless
Продолжительность: 0:59:12
Источник (релизер): What.CD (destructure)
Наличие сканов в содержимом раздачи: нет
Треклист:
01. Hauts Plateaux (4:44)
02. Bois Croisés (2:04)
03. Soweto Sorrow (4:08)
04. Ggaba (4:16)
05. Windhoek Suite (7:54)
06. Pingouin (1:53)
07. Guy Danse (3:58)
08. Water Buffalo (5:33)
09. Sur Le Lac (6:08)
10. Impala (1:46)
11. P'tit Môme (1:59)
12. Soul Is Free (5:23)
13. Girafe (1:54)
14. Ombrelles (1:44)
15. Bob De Klipton (5:48)

Clarinet, Saxophone [Soprano] - Louis Sclavis
Double Bass - Henri Texier
Drums - Aldo Romano

Executive Producer - Michel Orier
Mastered By - Jean-Pierre Bouquet
Photography - Guy Le Querrec
Recorded By, Mixed By - Philippe Teissier Du Cros
 
Exact Audio Copy V0.99 prebeta 4 from 23. January 2008

EAC extraction logfile from 18. October 2008, 18:33

Romano, Sclavis, Texier, Le Querrec / Suite Africaine

Used drive : TSSTcorpCDDVDW SH-S223F Adapter: 1 ID: 1

Read mode : SecureUtilize accurate stream : YesDefeat audio cache : YesMake use of C2 pointers : No

Read offset correction : 6Overread into Lead-In and Lead-Out : NoFill up missing offset samples with silence : YesDelete leading and trailing silent blocks : NoNull samples used in CRC calculations : YesUsed interface : Installed external ASPI interfaceGap handling : Appended to previous track

Used output format : User Defined EncoderSelected bitrate : 320 kBit/sQuality : HighAdd ID3 tag : NoCommand line compressor : C:\Program Files\Exact Audio Copy\FLAC\FLAC.EXEAdditional command line options : -V -8 -T "artist=%a" -T "title=%t" -T "album=%g" -T "date=%y" -T "tracknumber=%n" -T "genre=%m" %s

TOC of the extracted CD

Track | Start | Length | Start sector | End sector --------------------------------------------------------- 1 | 0:00.32 | 4:43.73 | 32 | 21329 2 | 4:44.30 | 2:04.30 | 21330 | 30659 3 | 6:48.60 | 4:07.42 | 30660 | 49226 4 | 10:56.27 | 4:15.65 | 49227 | 68416 5 | 15:12.17 | 7:53.58 | 68417 | 103949 6 | 23:06.00 | 1:53.22 | 103950 | 112446 7 | 24:59.22 | 3:58.15 | 112447 | 130311 8 | 28:57.37 | 5:32.55 | 130312 | 155266 9 | 34:30.17 | 6:08.15 | 155267 | 182881 10 | 40:38.32 | 1:46.13 | 182882 | 190844 11 | 42:24.45 | 1:58.67 | 190845 | 199961 12 | 44:23.37 | 5:23.13 | 199962 | 223999 13 | 49:46.50 | 1:54.27 | 224000 | 232576 14 | 51:41.02 | 1:44.25 | 232577 | 240401 15 | 53:25.27 | 5:47.38 | 240402 | 266464

Track 1

Filename C:\EACrips\Romano, Sclavis, Texier, Le Querrec - 1999 - Suite Africaine\01 - Hauts Plateaux.wav

Pre-gap length 0:00:02.42

Peak level 100.0 % Track quality 100.0 % Test CRC 90812826 Copy CRC 90812826 Accurately ripped (confidence 4) [ACE755F5] Copy OK

Track 2

Filename C:\EACrips\Romano, Sclavis, Texier, Le Querrec - 1999 - Suite Africaine\02 - Bois Croisйs.wav

Pre-gap length 0:00:04.53

Peak level 100.0 % Track quality 100.0 % Test CRC 6854134B Copy CRC 6854134B Accurately ripped (confidence 4) [4A349880] Copy OK

Track 3

Filename C:\EACrips\Romano, Sclavis, Texier, Le Querrec - 1999 - Suite Africaine\03 - Soweto Sorrow.wav

Pre-gap length 0:00:03.10

Peak level 100.0 % Track quality 100.0 % Test CRC C8A892A4 Copy CRC C8A892A4 Accurately ripped (confidence 4) [7574EF59] Copy OK

Track 4

Filename C:\EACrips\Romano, Sclavis, Texier, Le Querrec - 1999 - Suite Africaine\04 - Ggaba.wav

Pre-gap length 0:00:05.06

Peak level 100.0 % Track quality 100.0 % Test CRC A702CC18 Copy CRC A702CC18 Accurately ripped (confidence 4) [C01806BF] Copy OK

Track 5

Filename C:\EACrips\Romano, Sclavis, Texier, Le Querrec - 1999 - Suite Africaine\05 - Windhoek Suite.wav

Pre-gap length 0:00:04.93

Peak level 100.0 % Track quality 100.0 % Test CRC 36239C39 Copy CRC 36239C39 Accurately ripped (confidence 4) [0C1E551B] Copy OK

Track 6

Filename C:\EACrips\Romano, Sclavis, Texier, Le Querrec - 1999 - Suite Africaine\06 - Pingouin.wav

Pre-gap length 0:00:04.64

Peak level 86.5 % Track quality 100.0 % Test CRC 7986468F Copy CRC 7986468F Accurately ripped (confidence 4) [546BE9DE] Copy OK

Track 7

Filename C:\EACrips\Romano, Sclavis, Texier, Le Querrec - 1999 - Suite Africaine\07 - Guy Danse.wav

Pre-gap length 0:00:03.22

Peak level 100.0 % Track quality 100.0 % Test CRC F86B955D Copy CRC F86B955D Accurately ripped (confidence 4) [F4C01B3F] Copy OK

Track 8

Filename C:\EACrips\Romano, Sclavis, Texier, Le Querrec - 1999 - Suite Africaine\08 - Water Buffalo.wav

Pre-gap length 0:00:04.80

Peak level 100.0 % Track quality 99.9 % Test CRC 8803CA0B Copy CRC 8803CA0B Accurately ripped (confidence 4) [3DDA5632] Copy OK

Track 9

Filename C:\EACrips\Romano, Sclavis, Texier, Le Querrec - 1999 - Suite Africaine\09 - Sur Le Lac.wav

Pre-gap length 0:00:04.69

Peak level 100.0 % Track quality 100.0 % Test CRC 4B41AF1F Copy CRC 4B41AF1F Accurately ripped (confidence 4) [99A412E8] Copy OK

Track 10

Filename C:\EACrips\Romano, Sclavis, Texier, Le Querrec - 1999 - Suite Africaine\10 - Impala.wav

Pre-gap length 0:00:04.06

Peak level 100.0 % Track quality 100.0 % Test CRC 114A2F86 Copy CRC 114A2F86 Accurately ripped (confidence 4) [4980B6F2] Copy OK

Track 11

Filename C:\EACrips\Romano, Sclavis, Texier, Le Querrec - 1999 - Suite Africaine\11 - P'tit Mфme.wav

Peak level 100.0 % Track quality 99.9 % Test CRC A2612CC3 Copy CRC A2612CC3 Accurately ripped (confidence 4) [5EF384A6] Copy OK

Track 12

Filename C:\EACrips\Romano, Sclavis, Texier, Le Querrec - 1999 - Suite Africaine\12 - Soul Is Free.wav

Peak level 100.0 % Track quality 100.0 % Test CRC B0D044D1 Copy CRC B0D044D1 Accurately ripped (confidence 4) [6C485008] Copy OK

Track 13

Filename C:\EACrips\Romano, Sclavis, Texier, Le Querrec - 1999 - Suite Africaine\13 - Girafe.wav

Pre-gap length 0:00:05.37

Peak level 100.0 % Track quality 100.0 % Test CRC 7066EC7C Copy CRC 7066EC7C Accurately ripped (confidence 4) [4E37939B] Copy OK

Track 14

Filename C:\EACrips\Romano, Sclavis, Texier, Le Querrec - 1999 - Suite Africaine\14 - Ombrelles.wav

Peak level 100.0 % Track quality 100.0 % Test CRC AD1F6040 Copy CRC AD1F6040 Accurately ripped (confidence 4) [57F4E3FA] Copy OK

Track 15

Filename C:\EACrips\Romano, Sclavis, Texier, Le Querrec - 1999 - Suite Africaine\15 - Bob De Klipton.wav

Peak level 100.0 % Track quality 100.0 % Test CRC B75F2877 Copy CRC B75F2877 Accurately ripped (confidence 4) [250D0120] Copy OK

All tracks accurately ripped

No errors occurred

End of status report
 
REM GENRE JazzREM DATE 1999REM DISCID CE0DE00FREM COMMENT "ExactAudioCopy v0.99pb4"PERFORMER "Romano, Sclavis, Texier, Le Querrec"TITLE "Suite Africaine"FILE "01 - Hauts Plateaux.wav" WAVE TRACK 01 AUDIO TITLE "Hauts Plateaux" PERFORMER "Romano, Sclavis, Texier, Le Querrec" PREGAP 00:00:32 INDEX 01 00:00:00 TRACK 02 AUDIO TITLE "Bois Croisйs" PERFORMER "Romano, Sclavis, Texier, Le Querrec" INDEX 00 04:39:33FILE "02 - Bois Croisйs.wav" WAVE INDEX 01 00:00:00 TRACK 03 AUDIO TITLE "Soweto Sorrow" PERFORMER "Romano, Sclavis, Texier, Le Querrec" INDEX 00 02:01:22FILE "03 - Soweto Sorrow.wav" WAVE INDEX 01 00:00:00 TRACK 04 AUDIO TITLE "Ggaba" PERFORMER "Romano, Sclavis, Texier, Le Querrec" INDEX 00 04:02:37FILE "04 - Ggaba.wav" WAVE INDEX 01 00:00:00 TRACK 05 AUDIO TITLE "Windhoek Suite" PERFORMER "Romano, Sclavis, Texier, Le Querrec" INDEX 00 04:10:70FILE "05 - Windhoek Suite.wav" WAVE INDEX 01 00:00:00 TRACK 06 AUDIO TITLE "Pingouin" PERFORMER "Romano, Sclavis, Texier, Le Querrec" INDEX 00 07:49:10FILE "06 - Pingouin.wav" WAVE INDEX 01 00:00:00 TRACK 07 AUDIO TITLE "Guy Danse" PERFORMER "Romano, Sclavis, Texier, Le Querrec" INDEX 00 01:50:05FILE "07 - Guy Danse.wav" WAVE INDEX 01 00:00:00 TRACK 08 AUDIO TITLE "Water Buffalo" PERFORMER "Romano, Sclavis, Texier, Le Querrec" INDEX 00 03:53:30FILE "08 - Water Buffalo.wav" WAVE INDEX 01 00:00:00 TRACK 09 AUDIO TITLE "Sur Le Lac" PERFORMER "Romano, Sclavis, Texier, Le Querrec" INDEX 00 05:28:03FILE "09 - Sur Le Lac.wav" WAVE INDEX 01 00:00:00 TRACK 10 AUDIO TITLE "Impala" PERFORMER "Romano, Sclavis, Texier, Le Querrec" INDEX 00 06:04:10FILE "10 - Impala.wav" WAVE INDEX 01 00:00:00FILE "11 - P'tit Mфme.wav" WAVE TRACK 11 AUDIO TITLE "P'tit Mфme" PERFORMER "Romano, Sclavis, Texier, Le Querrec" INDEX 01 00:00:00FILE "12 - Soul Is Free.wav" WAVE TRACK 12 AUDIO TITLE "Soul Is Free" PERFORMER "Romano, Sclavis, Texier, Le Querrec" INDEX 01 00:00:00 TRACK 13 AUDIO TITLE "Girafe" PERFORMER "Romano, Sclavis, Texier, Le Querrec" INDEX 00 05:17:60FILE "13 - Girafe.wav" WAVE INDEX 01 00:00:00FILE "14 - Ombrelles.wav" WAVE TRACK 14 AUDIO TITLE "Ombrelles" PERFORMER "Romano, Sclavis, Texier, Le Querrec" INDEX 01 00:00:00FILE "15 - Bob De Klipton.wav" WAVE TRACK 15 AUDIO TITLE "Bob De Klipton" PERFORMER "Romano, Sclavis, Texier, Le Querrec" INDEX 01 00:00:00


Трекер:  [ 28-Янв-2012 18:09 ]

  

Скачать .torrent

Размер .torrent файла 16 KB


Размер: 390 MB
Хэш (hash) релиза: 201738e865ea6c3ebcb55346d7fe438ba59c591a

Еще никто не оставлял запись к записи скачать торрент Aldo Romano Louis Sclavis . Будь первым!

!Обратная связь