Скачать через торрент музыку Roberto Fonseca - Live in Marciac - 2010, WavPack бесплатно без регистрации torrent

Если у вас наблюдаются проблемы со скриншотами, переходом по ссылками, скачиванием торрентов - проблемы в блокировщике рекламы AdBlock. #хорошегоДня!


Статистика раздачи
Размер:  410 MB   |    Зарегистрирован:  5 лет 8 месяцев   |    .torrent скачан:  32 раза   |   
Раздают:  1  
   
Загрузка...
 
Автор Сообщение

Umakiro

avatar Umakiro


Roberto Fonseca - Live in Marciac
Жанр: Post-Bop / Latin Jazz / Piano
Год издания диска: 2010
Издатель (лейбл): Enja
Номер по каталогу: ENJ 9565 2
Аудио кодек: WavPack (*.wv)
Тип рипа: image+.cue
Битрейт аудио: lossless
Продолжительность: 1:06:19
Источник (релизер): HQShare (scalamus)
Наличие сканов в содержимом раздачи: нет
Треклист:
01. Fragmenta de misa (0:42)
02. Consumatum est (9:15)
03. Lo que me hace vivir (15:11)
04. Siete potencias (Bu kantu) (6:02)
05. Se te va la vida (18:23)
06. Llego cachaito (10:09)
07. Triste Alegria (6:38)

Roberto Fonseca - piano, voice
Javier Zalba - flute, reeds
Omar González - bass
Ramsés Rodriguez - drums
Joel Hierrezuelo - percussion
 
Exact Audio Copy V0.99 prebeta 5 from 4. May 2009

EAC extraction logfile from 2. October 2010, 16:11

Roberto Fonseca / Live in marciac

Used drive : HL-DT-STDVDRAM GSA-4165B Adapter: 3 ID: 0

Read mode : SecureUtilize accurate stream : YesDefeat audio cache : YesMake use of C2 pointers : No

Read offset correction : 667Overread into Lead-In and Lead-Out : NoFill up missing offset samples with silence : YesDelete leading and trailing silent blocks : NoNull samples used in CRC calculations : YesUsed interface : Installed external ASPI interface

Used output format : Internal WAV RoutinesSample format : 44.100 Hz; 16 Bit; Stereo

TOC of the extracted CD

Track | Start | Length | Start sector | End sector --------------------------------------------------------- 1 | 0:00.00 | 0:41.46 | 0 | 3120 2 | 0:41.46 | 9:14.43 | 3121 | 44713 3 | 9:56.14 | 15:11.24 | 44714 | 113062 4 | 25:07.38 | 6:01.52 | 113063 | 140189 5 | 31:09.15 | 18:22.58 | 140190 | 222897 6 | 49:31.73 | 10:08.73 | 222898 | 268570 7 | 59:40.71 | 6:38.30 | 268571 | 298450

Range status and errors

Selected range

Filename C:\Roberto Fonseca - Live in marciac.wav

Peak level 97.1 % Range quality 100.0 % Copy CRC AEAB26CC Copy OK

No errors occurred

End of status report


Трекер:  [ 28-Янв-2012 18:08 ]

  

Скачать .torrent

Размер .torrent файла 16 KB


Размер: 410 MB
Хэш (hash) релиза: 2240b1135b17ca3eb054c2e519dcaf807e016f8a

Еще никто не оставлял запись к записи скачать торрент Roberto Fonseca - Live in Marciac - 2010, WavPack . Будь первым!

!Обратная связь