Скачать через торрент музыку Vienna Art Orchestra - Big Band Poesie - 2004, FLAC бесплатно без регистрации torrent

Если у вас наблюдаются проблемы со скриншотами, переходом по ссылками, скачиванием торрентов - проблемы в блокировщике рекламы AdBlock. #хорошегоДня!


Статистика раздачи
Размер:  369 MB   |    Зарегистрирован:  5 лет 8 месяцев   |    .torrent скачан:  27 раз   |   
Раздают:  1  
   
Загрузка...
 
Автор Сообщение

Umakiro

avatar Umakiro


Vienna Art Orchestra - Big Band Poesie
Жанр: Experimental Big Band
Год издания диска: 2004
Издатель (лейбл): Emarcy
Номер по каталогу: 986771-0
Аудио кодек: FLAC (*.flac)
Тип рипа: tracks+.cue
Битрейт аудио: lossless
Продолжительность: 1:01:07
Источник (релизер): What.CD (jazzcrime)
Наличие сканов в содержимом раздачи: нет
Треклист:
01. We take PRIDE in being able to play the shit out (5:36)
02. Everything has its own TIME (5:04)
03. Music is MUSIC, that's it (5:59)
04. The music is like a JOURNEY (5:49)
05. Writing for big bands is like GOING HOME (6:13)
06. Insecurity is the secret of ETERNAL YOUTH (4:29)
07. Music is a very PERSONAL THING, strictly individual (5:50)
08. If the BLUES was whiskey, I would stay drunk all the time (5:26)
09. We get our KICKS from playing (5:21)
10. There is nothing to me. It's just THE BAND (3:50)
11. I sincerely BELIEVE in Jazz (4:41)
12. I helped to KILL the dance business (2:49)

Mathias Rüegg - leader
Anna Lauvergnac - voice
Tobias Weidinger - lead trumpet
Matthieu Michel, Thomas Gansch, Jörg Engels - trumpets
Adrian Mears, Robert Bachner, Georgi Kornazov - trombones
Ed Partyka - bass trombone & tuba
Mauro Negri - alto sax & clarinets
Joris Roelofs - alto sax & flute
Harry Sokal - tenor sax & soprano sax, flute
Andy Scherrer - tenor sax
Herwig Gradischnig - baritone sax & bass clarinet
Alegre Corrêa - guitar and percussion
Martin Koller - guitar and electronics
Georg Breinschmid - bass
Mario Gonzi - drums

Recorded at Porgy & Bess Vienna, August 2004 by Jürg Peterhans.

All compositions & arrangements by Mathias Rüegg, except #12, composed & arranged by Martin Koller. Lyrics #6 by Anna Lauvergnac.
The titels are quotations from:
Don Ellis (1), Quincy Jones (2), Duke Ellington (3), Sun Ra (4), Vince Mendoza (5), Gil Evans (6), Thad Jones (7), Lionel Hampton (8), Count Basie (9), Harry James (10), Artie Shaw (11) & Stan Kenton (12)
 
X Lossless Decoder version 20091108 (112.0)

XLD extraction logfile from 2010-03-04 19:11:03 +0000

Vienna Art Orchestra / Big Band Poesie

Used drive : Optiarc DVD RW AD-5240S (revision 1.03)

Use cdparanoia mode : YES (CDParanoia III 10.2 engine)Disable audio cache : OK for the drive with cache less than 2750KBMake use of C2 pointers : NORead offset correction : 48Max retry count : 100

TOC of the extracted CD Track | Start | Length | Start sector | End sector --------------------------------------------------------- 1 | 00:00:00 | 05:36:10 | 0 | 25209 2 | 05:36:10 | 05:04:22 | 25210 | 48031 3 | 10:40:32 | 05:59:08 | 48032 | 74964 4 | 16:39:40 | 05:49:07 | 74965 | 101146 5 | 22:28:47 | 06:13:00 | 101147 | 129121 6 | 28:41:47 | 04:29:10 | 129122 | 149306 7 | 33:10:57 | 05:49:60 | 149307 | 175541 8 | 39:00:42 | 05:26:05 | 175542 | 199996 9 | 44:26:47 | 05:20:58 | 199997 | 224054 10 | 49:47:30 | 03:50:20 | 224055 | 241324 11 | 53:37:50 | 04:40:42 | 241325 | 262366 12 | 58:18:17 | 02:49:15 | 262367 | 275056

Track 01 Filename : /Volumes/HFS1/XLD Rips/Vienna Art Orchestra - 2004 - Big Band Posie (FLAC)/01 - We take PRIDE in being able to play the shit out.flac

CRC32 hash (test run) : C2F65924 CRC32 hash : C2F65924 CRC32 hash (skip zero) : 7122E38D AccurateRip signature : BFBAB060 ->Accurately ripped! (confidence 2) Statistics Read error : 0 Skipped (treated as error) : 0 Edge jitter error (maybe fixed) : 0 Atom jitter error (maybe fixed) : 0 Drift error (maybe fixed) : 0 Dropped bytes error (maybe fixed) : 0 Duplicated bytes error (maybe fixed) : 0 Inconsistency in error sectors : 0

Track 02 Filename : /Volumes/HFS1/XLD Rips/Vienna Art Orchestra - 2004 - Big Band Posie (FLAC)/02 - Everything has its own TIME.flac

CRC32 hash (test run) : 91C8CC1D CRC32 hash : 91C8CC1D CRC32 hash (skip zero) : 538F31D6 AccurateRip signature : 052E217D ->Accurately ripped! (confidence 2) Statistics Read error : 0 Skipped (treated as error) : 0 Edge jitter error (maybe fixed) : 0 Atom jitter error (maybe fixed) : 0 Drift error (maybe fixed) : 0 Dropped bytes error (maybe fixed) : 0 Duplicated bytes error (maybe fixed) : 0 Inconsistency in error sectors : 0

Track 03 Filename : /Volumes/HFS1/XLD Rips/Vienna Art Orchestra - 2004 - Big Band Posie (FLAC)/03 - Music is MUSIC, that's it.flac

CRC32 hash (test run) : FFA2ABEE CRC32 hash : FFA2ABEE CRC32 hash (skip zero) : A16DD0E3 AccurateRip signature : 55A7E0BE ->Accurately ripped! (confidence 2) Statistics Read error : 0 Skipped (treated as error) : 0 Edge jitter error (maybe fixed) : 0 Atom jitter error (maybe fixed) : 0 Drift error (maybe fixed) : 0 Dropped bytes error (maybe fixed) : 0 Duplicated bytes error (maybe fixed) : 0 Inconsistency in error sectors : 0

Track 04 Filename : /Volumes/HFS1/XLD Rips/Vienna Art Orchestra - 2004 - Big Band Posie (FLAC)/04 - The music is like a JOURNEY.flac

CRC32 hash (test run) : 1FE6F498 CRC32 hash : 1FE6F498 CRC32 hash (skip zero) : DE5131CE AccurateRip signature : A4223EF4 ->Accurately ripped! (confidence 2) Statistics Read error : 0 Skipped (treated as error) : 0 Edge jitter error (maybe fixed) : 0 Atom jitter error (maybe fixed) : 0 Drift error (maybe fixed) : 0 Dropped bytes error (maybe fixed) : 0 Duplicated bytes error (maybe fixed) : 0 Inconsistency in error sectors : 0

Track 05 Filename : /Volumes/HFS1/XLD Rips/Vienna Art Orchestra - 2004 - Big Band Posie (FLAC)/05 - Writing for big bands is like GOING HOME.flac

CRC32 hash (test run) : EB0B3252 CRC32 hash : EB0B3252 CRC32 hash (skip zero) : 518FF2FA AccurateRip signature : 23EC2280 ->Accurately ripped! (confidence 2) Statistics Read error : 0 Skipped (treated as error) : 0 Edge jitter error (maybe fixed) : 0 Atom jitter error (maybe fixed) : 0 Drift error (maybe fixed) : 0 Dropped bytes error (maybe fixed) : 0 Duplicated bytes error (maybe fixed) : 0 Inconsistency in error sectors : 0

Track 06 Filename : /Volumes/HFS1/XLD Rips/Vienna Art Orchestra - 2004 - Big Band Posie (FLAC)/06 - Insecurity is the secret of ETERNAL YOUTH.flac

CRC32 hash (test run) : A986C20E CRC32 hash : A986C20E CRC32 hash (skip zero) : 4559257C AccurateRip signature : AD408443 ->Accurately ripped! (confidence 2) Statistics Read error : 0 Skipped (treated as error) : 0 Edge jitter error (maybe fixed) : 0 Atom jitter error (maybe fixed) : 0 Drift error (maybe fixed) : 0 Dropped bytes error (maybe fixed) : 0 Duplicated bytes error (maybe fixed) : 0 Inconsistency in error sectors : 0

Track 07 Filename : /Volumes/HFS1/XLD Rips/Vienna Art Orchestra - 2004 - Big Band Posie (FLAC)/07 - Music is a very PERSONAL THING, strictly individual.flac

CRC32 hash (test run) : 396136BC CRC32 hash : 396136BC CRC32 hash (skip zero) : DD9D2E24 AccurateRip signature : B92E1F2B ->Accurately ripped! (confidence 2) Statistics Read error : 0 Skipped (treated as error) : 0 Edge jitter error (maybe fixed) : 0 Atom jitter error (maybe fixed) : 0 Drift error (maybe fixed) : 0 Dropped bytes error (maybe fixed) : 0 Duplicated bytes error (maybe fixed) : 0 Inconsistency in error sectors : 0

Track 08 Filename : /Volumes/HFS1/XLD Rips/Vienna Art Orchestra - 2004 - Big Band Posie (FLAC)/08 - If the BLUES was whiskey, I would stay drunk all the time.flac

CRC32 hash (test run) : 83C8ABA5 CRC32 hash : 83C8ABA5 CRC32 hash (skip zero) : 2847C872 AccurateRip signature : 62A09933 ->Accurately ripped! (confidence 2) Statistics Read error : 0 Skipped (treated as error) : 0 Edge jitter error (maybe fixed) : 0 Atom jitter error (maybe fixed) : 0 Drift error (maybe fixed) : 0 Dropped bytes error (maybe fixed) : 0 Duplicated bytes error (maybe fixed) : 0 Inconsistency in error sectors : 0

Track 09 Filename : /Volumes/HFS1/XLD Rips/Vienna Art Orchestra - 2004 - Big Band Posie (FLAC)/09 - We get our KICKS from playing.flac

CRC32 hash (test run) : 9838EDDC CRC32 hash : 9838EDDC CRC32 hash (skip zero) : FBF9C007 AccurateRip signature : 0F2555C5 ->Accurately ripped! (confidence 2) Statistics Read error : 0 Skipped (treated as error) : 0 Edge jitter error (maybe fixed) : 0 Atom jitter error (maybe fixed) : 0 Drift error (maybe fixed) : 0 Dropped bytes error (maybe fixed) : 0 Duplicated bytes error (maybe fixed) : 0 Inconsistency in error sectors : 0

Track 10 Filename : /Volumes/HFS1/XLD Rips/Vienna Art Orchestra - 2004 - Big Band Posie (FLAC)/10 - There is nothing to me. It's just THE BAND.flac

CRC32 hash (test run) : 1B0185AB CRC32 hash : 1B0185AB CRC32 hash (skip zero) : 769D9F31 AccurateRip signature : 3F0B876C ->Accurately ripped! (confidence 2) Statistics Read error : 0 Skipped (treated as error) : 0 Edge jitter error (maybe fixed) : 0 Atom jitter error (maybe fixed) : 0 Drift error (maybe fixed) : 0 Dropped bytes error (maybe fixed) : 0 Duplicated bytes error (maybe fixed) : 0 Inconsistency in error sectors : 0

Track 11 Filename : /Volumes/HFS1/XLD Rips/Vienna Art Orchestra - 2004 - Big Band Posie (FLAC)/11 - I sincerely BELIEVE in Jazz.flac

CRC32 hash (test run) : 802A3CA1 CRC32 hash : 802A3CA1 CRC32 hash (skip zero) : FCB2BBA0 AccurateRip signature : 9D80BB91 ->Accurately ripped! (confidence 2) Statistics Read error : 0 Skipped (treated as error) : 0 Edge jitter error (maybe fixed) : 1 Atom jitter error (maybe fixed) : 0 Drift error (maybe fixed) : 0 Dropped bytes error (maybe fixed) : 1 Duplicated bytes error (maybe fixed) : 1 Inconsistency in error sectors : 0

Track 12 Filename : /Volumes/HFS1/XLD Rips/Vienna Art Orchestra - 2004 - Big Band Posie (FLAC)/12 - I helped to KILL the dance business.flac

CRC32 hash (test run) : 71A13C29 CRC32 hash : 71A13C29 CRC32 hash (skip zero) : 9DB17617 AccurateRip signature : EA552B26 ->Accurately ripped! (confidence 2) Statistics Read error : 0 Skipped (treated as error) : 0 Edge jitter error (maybe fixed) : 0 Atom jitter error (maybe fixed) : 0 Drift error (maybe fixed) : 0 Dropped bytes error (maybe fixed) : 0 Duplicated bytes error (maybe fixed) : 0 Inconsistency in error sectors : 0

No errors occurred

End of status report
 
TITLE "Big Band Poesie"PERFORMER "Vienna Art Orchestra"CATALOG 0602498677100REM GENRE "Unclassifiable"REM DATE 2004FILE "01 - We take PRIDE in being able to play the shit out.wav" WAVE TRACK 01 AUDIO TITLE "We take PRIDE in being able to play the shit out" ISRC ATM470400233 INDEX 01 00:00:00 TRACK 02 AUDIO TITLE "Everything has its own TIME" ISRC ATM470400234 INDEX 00 05:33:07FILE "02 - Everything has its own TIME.wav" WAVE INDEX 01 00:00:00 TRACK 03 AUDIO TITLE "Music is MUSIC, that's it" ISRC ATM470400235 INDEX 00 05:02:65FILE "03 - Music is MUSIC, that's it.wav" WAVE INDEX 01 00:00:00 TRACK 04 AUDIO TITLE "The music is like a JOURNEY" ISRC ATM470400236 INDEX 00 05:57:58FILE "04 - The music is like a JOURNEY.wav" WAVE INDEX 01 00:00:00 TRACK 05 AUDIO TITLE "Writing for big bands is like GOING HOME" ISRC ATM470400237 INDEX 00 05:48:10FILE "05 - Writing for big bands is like GOING HOME.wav" WAVE INDEX 01 00:00:00 TRACK 06 AUDIO TITLE "Insecurity is the secret of ETERNAL YOUTH" ISRC ATM470400238 INDEX 00 06:09:08FILE "06 - Insecurity is the secret of ETERNAL YOUTH.wav" WAVE INDEX 01 00:00:00 TRACK 07 AUDIO TITLE "Music is a very PERSONAL THING, strictly individual" ISRC ATM470400239 INDEX 00 04:26:60FILE "07 - Music is a very PERSONAL THING, strictly individual.wav" WAVE INDEX 01 00:00:00 TRACK 08 AUDIO TITLE "If the BLUES was whiskey, I would stay drunk all the time" ISRC ATM470400240 INDEX 00 05:46:55FILE "08 - If the BLUES was whiskey, I would stay drunk all the time.wav" WAVE INDEX 01 00:00:00 TRACK 09 AUDIO TITLE "We get our KICKS from playing" ISRC ATM470400241 INDEX 00 05:22:63FILE "09 - We get our KICKS from playing.wav" WAVE INDEX 01 00:00:00 TRACK 10 AUDIO TITLE "There is nothing to me. It's just THE BAND" ISRC ATM470400242 INDEX 00 05:17:15FILE "10 - There is nothing to me. It's just THE BAND.wav" WAVE INDEX 01 00:00:00 TRACK 11 AUDIO TITLE "I sincerely BELIEVE in Jazz" ISRC ATM470400243 INDEX 00 03:45:55FILE "11 - I sincerely BELIEVE in Jazz.wav" WAVE INDEX 01 00:00:00 TRACK 12 AUDIO TITLE "I helped to KILL the dance business" ISRC ATM470400244 INDEX 00 04:39:32FILE "12 - I helped to KILL the dance business.wav" WAVE INDEX 01 00:00:00


Трекер:  [ 28-Янв-2012 18:08 ]

  

Скачать .torrent

Размер .torrent файла 16 KB


Размер: 369 MB
Хэш (hash) релиза: 2f385526da0cc58adbd594a15dbbbeba6f00f0ee

Еще никто не оставлял запись к записи скачать торрент Vienna Art Orchestra - Big Band Poesie - 2004, FLAC . Будь первым!

!Обратная связь