Скачать через торрент музыку Vienna Art Orchestra - Third Dream - 2009, FLAC бесплатно без регистрации torrent

Если у вас наблюдаются проблемы со скриншотами, переходом по ссылками, скачиванием торрентов - проблемы в блокировщике рекламы AdBlock. #хорошегоДня!


Статистика раздачи
Размер:  364 MB   |    Зарегистрирован:  5 лет 8 месяцев   |    .torrent скачан:  24 раза   |   
Раздают:  1  
   
Загрузка...
 
Автор Сообщение

Umakiro

avatar Umakiro


Vienna Art Orchestra - Third Dream
Жанр: Experimental Big Band / Third Stream
Год издания диска: 2009
Издатель (лейбл): Extraplatte
Номер по каталогу: EX 998-2
Аудио кодек: FLAC (*.flac)
Тип рипа: tracks+.cue
Битрейт аудио: lossless
Продолжительность: 1:06:00
Источник (релизер): What.CD (jazzcrime)
Наличие сканов в содержимом раздачи: нет
Треклист:
01. A Tender Glance (5:16)
02. A Silent Second (6:16)
03. MINUTEs Of Dreams (5:08)
04. Caged In Enigmatic HOURs (5:47)
05. Suddenly: DAYlight Of A Night Flower (4:29)
06. Burning More Than A Week (6:18)
07. Legends Of Time, Beyond Any One Month (4:08)
08. Waiting For A Year Of Passion (6:14)
09. After DECADEs Of Doubts (5:02)
10. Adieux, Lost Century (5:20)
11. Attaining Eternity (5:37)
12. Just Kind Of A Third Dream (6:24)

Mathias Ruegg - composer, leader
Juraj Bartos, Aneel Soomary - trumpet
Harry Sokal - saxes, flute
Joris Roelofs - clarinets, alto sax
Corn Curschellas - voice
Thomas Fischer - French horn
Dominik Stoger - trombone
Thomas Frey - flute
Vasile Marian - oboe
Hubert Kerschbaumer - clarinet
Matthias Kronsteiner - bassoon
Joanna Lewis, Ivana Pristasova - violins
Andrew Jezek - viola
Michael Williams - cello
Joanna Grobner - piano
Flip Philipp - vibraphone, percussion
Ernst Weissensteiner - bass
Ingrid Oberkanins - percussion

Recorded at Schloss Elmau, Mai 17th 2009 by Martin Ruch.
Solos of Juraj Bartos recorded on July 8th 2009 at Clipwerk
Solos of Harry Sokal recorded on July 21st 2009 at Porgy & Bess, Vienna
 
X Lossless Decoder version 20091108 (112.0)

XLD extraction logfile from 2009-12-25 12:41:50 +0000

Vienna Art Orchestra / Third Dream

Used drive : MATSHITA DVD-R UJ-867 (revision HA13)

Use cdparanoia mode : YES (CDParanoia III 10.2 engine)Disable audio cache : OK for the drive with cache less than 2750KBMake use of C2 pointers : NORead offset correction : 102Max retry count : 100

TOC of the extracted CD Track | Start | Length | Start sector | End sector --------------------------------------------------------- 1 | 00:00:00 | 05:16:30 | 0 | 23729 2 | 05:16:30 | 06:16:10 | 23730 | 51939 3 | 11:32:40 | 05:08:29 | 51940 | 75068 4 | 16:40:69 | 05:47:11 | 75069 | 101104 5 | 22:28:05 | 04:29:24 | 101105 | 121303 6 | 26:57:29 | 06:17:51 | 121304 | 149629 7 | 33:15:05 | 04:07:52 | 149630 | 168206 8 | 37:22:57 | 06:13:70 | 168207 | 196251 9 | 43:36:52 | 05:02:34 | 196252 | 218935 10 | 48:39:11 | 05:20:04 | 218936 | 242939 11 | 53:59:15 | 05:36:64 | 242940 | 268203 12 | 59:36:04 | 06:23:56 | 268204 | 296984

Track 01 Filename : /XLD Rips/Vienna Art Orchestra - 2009 - Third Dream (flac)/01 Vienna Art Orchestra - A Tender Glance.flac

CRC32 hash (test run) : 63C4BBC1 CRC32 hash : 63C4BBC1 CRC32 hash (skip zero) : A747356C AccurateRip signature : 4F23478E ->Track not present in AccurateRip database. Statistics Read error : 0 Skipped (treated as error) : 0 Edge jitter error (maybe fixed) : 0 Atom jitter error (maybe fixed) : 0 Drift error (maybe fixed) : 0 Dropped bytes error (maybe fixed) : 0 Duplicated bytes error (maybe fixed) : 0 Inconsistency in error sectors : 0

Track 02 Filename : /XLD Rips/Vienna Art Orchestra - 2009 - Third Dream (flac)/02 Vienna Art Orchestra - A Silent Second.flac

CRC32 hash (test run) : A1BE545B CRC32 hash : A1BE545B CRC32 hash (skip zero) : AEC2AECE AccurateRip signature : E8E8DB96 ->Track not present in AccurateRip database. Statistics Read error : 0 Skipped (treated as error) : 0 Edge jitter error (maybe fixed) : 0 Atom jitter error (maybe fixed) : 0 Drift error (maybe fixed) : 0 Dropped bytes error (maybe fixed) : 0 Duplicated bytes error (maybe fixed) : 0 Inconsistency in error sectors : 0

Track 03 Filename : /XLD Rips/Vienna Art Orchestra - 2009 - Third Dream (flac)/03 Vienna Art Orchestra - MINUTEs Of Dreams.flac

CRC32 hash (test run) : D8D133F2 CRC32 hash : D8D133F2 CRC32 hash (skip zero) : 0FD1D553 AccurateRip signature : 21AA4C6E ->Track not present in AccurateRip database. Statistics Read error : 0 Skipped (treated as error) : 0 Edge jitter error (maybe fixed) : 0 Atom jitter error (maybe fixed) : 0 Drift error (maybe fixed) : 0 Dropped bytes error (maybe fixed) : 0 Duplicated bytes error (maybe fixed) : 0 Inconsistency in error sectors : 0

Track 04 Filename : /XLD Rips/Vienna Art Orchestra - 2009 - Third Dream (flac)/04 Vienna Art Orchestra - Caged In Enigmatic HOURs.flac

CRC32 hash (test run) : 36884451 CRC32 hash : 36884451 CRC32 hash (skip zero) : 66C98CE9 AccurateRip signature : 3A153FF1 ->Track not present in AccurateRip database. Statistics Read error : 0 Skipped (treated as error) : 0 Edge jitter error (maybe fixed) : 0 Atom jitter error (maybe fixed) : 0 Drift error (maybe fixed) : 0 Dropped bytes error (maybe fixed) : 0 Duplicated bytes error (maybe fixed) : 0 Inconsistency in error sectors : 0

Track 05 Filename : /XLD Rips/Vienna Art Orchestra - 2009 - Third Dream (flac)/05 Vienna Art Orchestra - Suddenly: DAYlight Of A Night Flower.flac

CRC32 hash (test run) : 04122A1B CRC32 hash : 04122A1B CRC32 hash (skip zero) : B7B8A1C8 AccurateRip signature : E60E122C ->Track not present in AccurateRip database. Statistics Read error : 0 Skipped (treated as error) : 0 Edge jitter error (maybe fixed) : 0 Atom jitter error (maybe fixed) : 0 Drift error (maybe fixed) : 0 Dropped bytes error (maybe fixed) : 0 Duplicated bytes error (maybe fixed) : 0 Inconsistency in error sectors : 0

Track 06 Filename : /XLD Rips/Vienna Art Orchestra - 2009 - Third Dream (flac)/06 Vienna Art Orchestra - Burning More Than A Week.flac

CRC32 hash (test run) : 09594FC9 CRC32 hash : 09594FC9 CRC32 hash (skip zero) : F1DDE6CB AccurateRip signature : 91F204EA ->Track not present in AccurateRip database. Statistics Read error : 0 Skipped (treated as error) : 0 Edge jitter error (maybe fixed) : 0 Atom jitter error (maybe fixed) : 0 Drift error (maybe fixed) : 0 Dropped bytes error (maybe fixed) : 0 Duplicated bytes error (maybe fixed) : 0 Inconsistency in error sectors : 0

Track 07 Filename : /XLD Rips/Vienna Art Orchestra - 2009 - Third Dream (flac)/07 Vienna Art Orchestra - Legends Of Time, Beyond Any One Month.flac

CRC32 hash (test run) : 86B20131 CRC32 hash : 86B20131 CRC32 hash (skip zero) : 74ABF4AA AccurateRip signature : DC48F36C ->Track not present in AccurateRip database. Statistics Read error : 0 Skipped (treated as error) : 0 Edge jitter error (maybe fixed) : 0 Atom jitter error (maybe fixed) : 0 Drift error (maybe fixed) : 0 Dropped bytes error (maybe fixed) : 0 Duplicated bytes error (maybe fixed) : 0 Inconsistency in error sectors : 0

Track 08 Filename : /XLD Rips/Vienna Art Orchestra - 2009 - Third Dream (flac)/08 Vienna Art Orchestra - Waiting For A Year Of Passion.flac

CRC32 hash (test run) : 247A1437 CRC32 hash : 247A1437 CRC32 hash (skip zero) : 544025ED AccurateRip signature : 3B269958 ->Track not present in AccurateRip database. Statistics Read error : 0 Skipped (treated as error) : 0 Edge jitter error (maybe fixed) : 0 Atom jitter error (maybe fixed) : 0 Drift error (maybe fixed) : 0 Dropped bytes error (maybe fixed) : 0 Duplicated bytes error (maybe fixed) : 0 Inconsistency in error sectors : 0

Track 09 Filename : /XLD Rips/Vienna Art Orchestra - 2009 - Third Dream (flac)/09 Vienna Art Orchestra - After DECADEs Of Doubts.flac

CRC32 hash (test run) : 2C37E440 CRC32 hash : 2C37E440 CRC32 hash (skip zero) : 0403D9A9 AccurateRip signature : 23A153ED ->Track not present in AccurateRip database. Statistics Read error : 0 Skipped (treated as error) : 0 Edge jitter error (maybe fixed) : 0 Atom jitter error (maybe fixed) : 0 Drift error (maybe fixed) : 0 Dropped bytes error (maybe fixed) : 0 Duplicated bytes error (maybe fixed) : 0 Inconsistency in error sectors : 0

Track 10 Filename : /XLD Rips/Vienna Art Orchestra - 2009 - Third Dream (flac)/10 Vienna Art Orchestra - Adieux, Lost Century.flac

CRC32 hash (test run) : 8D7EAA9B CRC32 hash : 8D7EAA9B CRC32 hash (skip zero) : B9F77799 AccurateRip signature : 94A4D762 ->Track not present in AccurateRip database. Statistics Read error : 0 Skipped (treated as error) : 0 Edge jitter error (maybe fixed) : 0 Atom jitter error (maybe fixed) : 0 Drift error (maybe fixed) : 0 Dropped bytes error (maybe fixed) : 0 Duplicated bytes error (maybe fixed) : 0 Inconsistency in error sectors : 0

Track 11 Filename : /XLD Rips/Vienna Art Orchestra - 2009 - Third Dream (flac)/11 Vienna Art Orchestra - Attaining Eternity.flac

CRC32 hash (test run) : E65F62C1 CRC32 hash : E65F62C1 CRC32 hash (skip zero) : A6179E0A AccurateRip signature : 478D1B6D ->Track not present in AccurateRip database. Statistics Read error : 0 Skipped (treated as error) : 0 Edge jitter error (maybe fixed) : 0 Atom jitter error (maybe fixed) : 0 Drift error (maybe fixed) : 0 Dropped bytes error (maybe fixed) : 0 Duplicated bytes error (maybe fixed) : 0 Inconsistency in error sectors : 0

Track 12 Filename : /XLD Rips/Vienna Art Orchestra - 2009 - Third Dream (flac)/12 Vienna Art Orchestra - Just Kind Of A Third Dream.flac

CRC32 hash (test run) : 55F03BB3 CRC32 hash : 55F03BB3 CRC32 hash (skip zero) : 8AFFEAE0 AccurateRip signature : 95F99891 ->Track not present in AccurateRip database. Statistics Read error : 0 Skipped (treated as error) : 0 Edge jitter error (maybe fixed) : 0 Atom jitter error (maybe fixed) : 0 Drift error (maybe fixed) : 0 Dropped bytes error (maybe fixed) : 0 Duplicated bytes error (maybe fixed) : 0 Inconsistency in error sectors : 0

No errors occurred

End of status report
 
TITLE "Third Dream"PERFORMER "Vienna Art Orchestra"CATALOG 9005346199822REM GENRE "Jazz"REM DATE 2009FILE "01 Vienna Art Orchestra - A Tender Glance.wav" WAVE TRACK 01 AUDIO TITLE "A Tender Glance" ISRC ATE140901401 INDEX 01 00:00:00FILE "02 Vienna Art Orchestra - A Silent Second.wav" WAVE TRACK 02 AUDIO TITLE "A Silent Second" ISRC ATE140901402 INDEX 01 00:00:00FILE "03 Vienna Art Orchestra - MINUTEs Of Dreams.wav" WAVE TRACK 03 AUDIO TITLE "MINUTEs Of Dreams" ISRC ATE140901403 INDEX 01 00:00:00FILE "04 Vienna Art Orchestra - Caged In Enigmatic HOURs.wav" WAVE TRACK 04 AUDIO TITLE "Caged In Enigmatic HOURs" ISRC ATE140901404 INDEX 01 00:00:00FILE "05 Vienna Art Orchestra - Suddenly: DAYlight Of A Night Flower.wav" WAVE TRACK 05 AUDIO TITLE "Suddenly: DAYlight Of A Night Flower" ISRC ATE140901405 INDEX 01 00:00:00FILE "06 Vienna Art Orchestra - Burning More Than A Week.wav" WAVE TRACK 06 AUDIO TITLE "Burning More Than A Week" ISRC ATE140901406 INDEX 01 00:00:00FILE "07 Vienna Art Orchestra - Legends Of Time, Beyond Any One Month.wav" WAVE TRACK 07 AUDIO TITLE "Legends Of Time, Beyond Any One Month" ISRC ATE140901407 INDEX 01 00:00:00FILE "08 Vienna Art Orchestra - Waiting For A Year Of Passion.wav" WAVE TRACK 08 AUDIO TITLE "Waiting For A Year Of Passion" ISRC ATE140901408 INDEX 01 00:00:00FILE "09 Vienna Art Orchestra - After DECADEs Of Doubts.wav" WAVE TRACK 09 AUDIO TITLE "After DECADEs Of Doubts" ISRC ATE140901409 INDEX 01 00:00:00FILE "10 Vienna Art Orchestra - Adieux, Lost Century.wav" WAVE TRACK 10 AUDIO TITLE "Adieux, Lost Century" ISRC ATE140901410 INDEX 01 00:00:00FILE "11 Vienna Art Orchestra - Attaining Eternity.wav" WAVE TRACK 11 AUDIO TITLE "Attaining Eternity" ISRC ATE140901411 INDEX 01 00:00:00FILE "12 Vienna Art Orchestra - Just Kind Of A Third Dream.wav" WAVE TRACK 12 AUDIO TITLE "Just Kind Of A Third Dream" ISRC ATE140901412 INDEX 01 00:00:00


Трекер:  [ 28-Янв-2012 18:07 ]

  

Скачать .torrent

Размер .torrent файла 16 KB


Размер: 364 MB
Хэш (hash) релиза: 5819bc6fc42a037eeb41a8a5105a7c47396a224d

Еще никто не оставлял запись к записи скачать торрент Vienna Art Orchestra - Third Dream - 2009, FLAC . Будь первым!

!Обратная связь