Скачать через торрент музыку David Hazeltine Trio - Pearls - 2001, FLAC бесплатно без регистрации torrent

Если у вас наблюдаются проблемы со скриншотами, переходом по ссылками, скачиванием торрентов - проблемы в блокировщике рекламы AdBlock. #хорошегоДня!


Статистика раздачи
Размер:  355 MB   |    Зарегистрирован:  5 лет 8 месяцев   |    .torrent скачан:  36 раз   |   
Раздают:  1  
   
Загрузка...
 
Автор Сообщение

Umakiro

avatar Umakiro


David Hazeltine Trio - Pearls
Жанр: Post-Bop / Piano
Год издания диска: 2001
Издатель (лейбл): Venus Records
Номер по каталогу: TKCV-35092
Аудио кодек: FLAC (*.flac)
Тип рипа: tracks+.cue
Битрейт аудио: lossless
Продолжительность: 0:48:57
Источник (релизер): NoNaMe (scofild)
Наличие сканов в содержимом раздачи: да
Треклист:
01. What Kind Of Fool Am I (5:39)
02. My Old Flame (4:05)
03. Tha Masquerade Is Over (8:02)
04. His Lordship (For Cedar Walton) (7:22)
05. Somewhere (5:40)
06. Darn That Dream (6:09)
07. Pearls (5:04)
08. Close Enough For Love (6:56)

David Hazeltine - piano
Peter Washington - bass
Joe Farnsworth - drums

Recorded at Studio in New York on November 18 and 19, 2000
 
X Lossless Decoder version 20090320 (105.1)

XLD extraction logfile from 2009-04-04 12:35:26 -0700

David Hazeltine Trio / Pearls

Used drive : PIONEER DVD-RW DVR-115D (revision 1.18)

Use cdparanoia mode : YES (CDParanoia III 10.2 engine)Disable audio cache : OK for the drive with cache less than 2750KBMake use of C2 pointers : NORead offset correction : 48Max retry count : 100

TOC of the extracted CD Track | Start | Length | Start sector | End sector --------------------------------------------------------- 1 | 00:00:00 | 05:39:16 | 0 | 25440 2 | 05:39:16 | 04:04:68 | 25441 | 43808 3 | 09:44:09 | 08:01:71 | 43809 | 79954 4 | 17:46:05 | 07:21:41 | 79955 | 113070 5 | 25:07:46 | 05:40:00 | 113071 | 138570 6 | 30:47:46 | 06:08:73 | 138571 | 166243 7 | 36:56:44 | 05:04:31 | 166244 | 189074 8 | 42:01:00 | 06:56:24 | 189075 | 220298

Track 01 Filename : /Volumes/SG1TB/BluFrog/Rips/Pearls/01 - What Kind Of Fool Am I.flac

CRC32 hash (test run) : 58397199 CRC32 hash : 58397199 CRC32 hash (skip zero) : C7C6A528 AccurateRip signature : 19F1D44B ->Track not present in AccurateRip database. Statistics Read error : 0 Skipped (treated as error) : 0 Edge jitter error (maybe fixed) : 0 Atom jitter error (maybe fixed) : 0 Drift error (maybe fixed) : 0 Dropped bytes error (maybe fixed) : 0 Duplicated bytes error (maybe fixed) : 0 Inconsistency in error sectors : 0

Track 02 Filename : /Volumes/SG1TB/BluFrog/Rips/Pearls/02 - My Old Flame.flac

CRC32 hash (test run) : C8C8491B CRC32 hash : C8C8491B CRC32 hash (skip zero) : 93901F69 AccurateRip signature : 40E20E30 ->Track not present in AccurateRip database. Statistics Read error : 0 Skipped (treated as error) : 0 Edge jitter error (maybe fixed) : 0 Atom jitter error (maybe fixed) : 0 Drift error (maybe fixed) : 0 Dropped bytes error (maybe fixed) : 0 Duplicated bytes error (maybe fixed) : 0 Inconsistency in error sectors : 0

Track 03 Filename : /Volumes/SG1TB/BluFrog/Rips/Pearls/03 - Tha Masquerade Is Over.flac

CRC32 hash (test run) : 98820D8A CRC32 hash : 98820D8A CRC32 hash (skip zero) : 72E217C7 AccurateRip signature : B0F0BF51 ->Track not present in AccurateRip database. Statistics Read error : 0 Skipped (treated as error) : 0 Edge jitter error (maybe fixed) : 0 Atom jitter error (maybe fixed) : 0 Drift error (maybe fixed) : 0 Dropped bytes error (maybe fixed) : 0 Duplicated bytes error (maybe fixed) : 0 Inconsistency in error sectors : 0

Track 04 Filename : /Volumes/SG1TB/BluFrog/Rips/Pearls/04 - His Lordship (For Cedar Walton).flac

CRC32 hash (test run) : D64AB55D CRC32 hash : D64AB55D CRC32 hash (skip zero) : 68BD8436 AccurateRip signature : A60E092D ->Track not present in AccurateRip database. Statistics Read error : 0 Skipped (treated as error) : 0 Edge jitter error (maybe fixed) : 1 Atom jitter error (maybe fixed) : 0 Drift error (maybe fixed) : 0 Dropped bytes error (maybe fixed) : 0 Duplicated bytes error (maybe fixed) : 0 Inconsistency in error sectors : 0

Track 05 Filename : /Volumes/SG1TB/BluFrog/Rips/Pearls/05 - Somewhere.flac

CRC32 hash (test run) : 1312CED3 CRC32 hash : 1312CED3 CRC32 hash (skip zero) : 086F11A4 AccurateRip signature : 1F938607 ->Track not present in AccurateRip database. Statistics Read error : 0 Skipped (treated as error) : 0 Edge jitter error (maybe fixed) : 0 Atom jitter error (maybe fixed) : 0 Drift error (maybe fixed) : 0 Dropped bytes error (maybe fixed) : 0 Duplicated bytes error (maybe fixed) : 0 Inconsistency in error sectors : 0

Track 06 Filename : /Volumes/SG1TB/BluFrog/Rips/Pearls/06 - Darn That Dream.flac

CRC32 hash (test run) : 2448C9DF CRC32 hash : 2448C9DF CRC32 hash (skip zero) : 516B3D40 AccurateRip signature : 78C135F3 ->Track not present in AccurateRip database. Statistics Read error : 0 Skipped (treated as error) : 0 Edge jitter error (maybe fixed) : 0 Atom jitter error (maybe fixed) : 0 Drift error (maybe fixed) : 0 Dropped bytes error (maybe fixed) : 0 Duplicated bytes error (maybe fixed) : 0 Inconsistency in error sectors : 0

Track 07 Filename : /Volumes/SG1TB/BluFrog/Rips/Pearls/07 - Pearls.flac

CRC32 hash (test run) : 61BED577 CRC32 hash : 61BED577 CRC32 hash (skip zero) : 7536DA0F AccurateRip signature : A1CB84ED ->Track not present in AccurateRip database. Statistics Read error : 0 Skipped (treated as error) : 0 Edge jitter error (maybe fixed) : 0 Atom jitter error (maybe fixed) : 0 Drift error (maybe fixed) : 0 Dropped bytes error (maybe fixed) : 0 Duplicated bytes error (maybe fixed) : 0 Inconsistency in error sectors : 0

Track 08 Filename : /Volumes/SG1TB/BluFrog/Rips/Pearls/08 - Close Enough For Love.flac

CRC32 hash (test run) : 54BDA2F2 CRC32 hash : 54BDA2F2 CRC32 hash (skip zero) : FCE6E94D AccurateRip signature : 093C91EF ->Track not present in AccurateRip database. Statistics Read error : 0 Skipped (treated as error) : 0 Edge jitter error (maybe fixed) : 0 Atom jitter error (maybe fixed) : 0 Drift error (maybe fixed) : 0 Dropped bytes error (maybe fixed) : 0 Duplicated bytes error (maybe fixed) : 0 Inconsistency in error sectors : 0

No errors occurred

End of status report
 
PERFORMER "David Hazeltine Trio"TITLE "Pearls"REM GENRE "Jazz"REM DATE 2001FILE "01 - What Kind Of Fool Am I.wav" WAVE TRACK 01 AUDIO TITLE "What Kind Of Fool Am I" INDEX 01 00:00:00 TRACK 02 AUDIO TITLE "My Old Flame" INDEX 00 05:36:46FILE "02 - My Old Flame.wav" WAVE INDEX 01 00:00:00 TRACK 03 AUDIO TITLE "Tha Masquerade Is Over" INDEX 00 04:01:23FILE "03 - Tha Masquerade Is Over.wav" WAVE INDEX 01 00:00:00 TRACK 04 AUDIO TITLE "His Lordship (For Cedar Walton)" INDEX 00 07:58:26FILE "04 - His Lordship (For Cedar Walton).wav" WAVE INDEX 01 00:00:00 TRACK 05 AUDIO TITLE "Somewhere" INDEX 00 07:17:71FILE "05 - Somewhere.wav" WAVE INDEX 01 00:00:00 TRACK 06 AUDIO TITLE "Darn That Dream" INDEX 00 05:36:30FILE "06 - Darn That Dream.wav" WAVE INDEX 01 00:00:00 TRACK 07 AUDIO TITLE "Pearls" INDEX 00 06:06:28FILE "07 - Pearls.wav" WAVE INDEX 01 00:00:00 TRACK 08 AUDIO TITLE "Close Enough For Love" INDEX 00 05:02:61FILE "08 - Close Enough For Love.wav" WAVE INDEX 01 00:00:00


Трекер:  [ 28-Янв-2012 18:06 ]

  

Скачать .torrent

Размер .torrent файла 15 KB


Размер: 355 MB
Хэш (hash) релиза: 8de501476b0f97a489696a929f514be597f3f94c

Еще никто не оставлял запись к записи скачать торрент David Hazeltine Trio - Pearls - 2001, FLAC . Будь первым!

!Обратная связь