Скачать через торрент музыку The Rhythmagic Orchestra - The Rhythmagic Orchestra 201 бесплатно без регистрации torrent

Если у вас наблюдаются проблемы со скриншотами, переходом по ссылками, скачиванием торрентов - проблемы в блокировщике рекламы AdBlock. #хорошегоДня!


Статистика раздачи
Размер:  308 MB   |    Зарегистрирован:  5 лет 8 месяцев   |    .torrent скачан:  29 раз   |   
Раздают:  1  
   
Загрузка...
 
Автор Сообщение

Umakiro

avatar Umakiro


The Rhythmagic Orchestra - The Rhythmagic Orchestra 2010(Tru Thoughts UNFOLDCD012)

Жанр: Afro-Cuban Jazz - Latin-Jazz - Fusion
Страна-производитель диска: EU
Год издания диска: 2010
Издатель (лейбл): Tru Thoughts UNFOLDCD012
Страна: United Kingdom&Cuba
Аудиокодек: WavPack (*.wv)
Тип рипа: image+.cue
Битрейт аудио: lossless
Продолжительность: 00:45:59
Источник (релизер): hqshare by egotrsh
Наличие сканов в содержимом раздачи: да Треклист:
01. African Mailman [0:03:33.74]
02. Cha Ha De Juventud [0:04:09.09]
03. Tiajuana [0:03:02.72]
04. Afrodisia [0:03:39.42]
05. Fish Market Dance [0:03:42.01]
06. Sakeena [0:04:06.43]
07. Afreaka [0:05:04.62]
08. Gulli Gulli [0:05:29.57]
09. Mary Lou [0:05:32.28]
10. Tururato [0:03:23.38]
11. Manteca [0:04:15.11]
 
Exact Audio Copy V1.0 beta 1 from 15. November 2010

EAC extraction logfile from 22. November 2011, 14:00

The Rhythmagic Orchestra / The Rhythmagic Orchestra

Used drive : ASUS CRW-5232AX Adapter: 4 ID: 1

Read mode : SecureUtilize accurate stream : YesDefeat audio cache : YesMake use of C2 pointers : No

Read offset correction : 6Overread into Lead-In and Lead-Out : NoFill up missing offset samples with silence : YesDelete leading and trailing silent blocks : NoNull samples used in CRC calculations : YesUsed interface : Native Win32 interface for Win NT & 2000

Used output format : Internal WAV RoutinesSample format : 44.100 Hz; 16 Bit; Stereo

TOC of the extracted CD

Track | Start | Length | Start sector | End sector --------------------------------------------------------- 1 | 0:00.00 | 3:33.74 | 0 | 16048 2 | 3:33.74 | 4:09.09 | 16049 | 34732 3 | 7:43.08 | 3:02.72 | 34733 | 48454 4 | 10:46.05 | 3:39.42 | 48455 | 64921 5 | 14:25.47 | 3:42.01 | 64922 | 81572 6 | 18:07.48 | 4:06.43 | 81573 | 100065 7 | 22:14.16 | 5:04.62 | 100066 | 122927 8 | 27:19.03 | 5:29.57 | 122928 | 147659 9 | 32:48.60 | 5:32.28 | 147660 | 172587 10 | 38:21.13 | 3:23.38 | 172588 | 187850 11 | 41:44.51 | 4:15.11 | 187851 | 206986

Range status and errors

Selected range

Filename D:\TMP_MUSIC\The Rhythmagic Orchestra - The Rhythmagic Orchestra (2010) HQShare by egotrsh\The Rhythmagic Orchestra - The Rhythmagic Orchestra.wav

Peak level 98.8 % Extraction speed 0.7 X Range quality 100.0 % Test CRC D100C795 Copy CRC D100C795 Copy OK

No errors occurred

AccurateRip summary

Track 1 accurately ripped (confidence 1) [EACA8BBA]Track 2 accurately ripped (confidence 1) [48D28F7B]Track 3 accurately ripped (confidence 1) [9AC14271]Track 4 accurately ripped (confidence 1) [F9D64151]Track 5 accurately ripped (confidence 1) [E01D6393]Track 6 accurately ripped (confidence 1) [7DF91927]Track 7 accurately ripped (confidence 1) [5E5E4C55]Track 8 accurately ripped (confidence 1) [172CE42B]Track 9 accurately ripped (confidence 1) [C16B3D22]Track 10 accurately ripped (confidence 1) [953B02F2]Track 11 accurately ripped (confidence 1) [6D59637D]

All tracks accurately ripped

End of status report

==== Log checksum 1D5A13B8209DEACDB9BEDDA7C581988EFDCF8BEAA0CBA48FD6B64FA698827D93 ====
 
REM GENRE ElectronicREM DATE 2010REM DISCID 910AC70BREM COMMENT "ExactAudioCopy v1.0b1"PERFORMER "The Rhythmagic Orchestra"TITLE "The Rhythmagic Orchestra"FILE "The Rhythmagic Orchestra - The Rhythmagic Orchestra.wav" WAVE TRACK 01 AUDIO TITLE "African Mailman" PERFORMER "The Rhythmagic Orchestra" INDEX 01 00:00:00 TRACK 02 AUDIO TITLE "Cha Ha De Juventud" PERFORMER "The Rhythmagic Orchestra" INDEX 00 03:33:24 INDEX 01 03:33:74 TRACK 03 AUDIO TITLE "Tiajuana" PERFORMER "The Rhythmagic Orchestra" INDEX 00 07:42:71 INDEX 01 07:43:08 TRACK 04 AUDIO TITLE "Afrodisia" PERFORMER "The Rhythmagic Orchestra" INDEX 01 10:46:05 TRACK 05 AUDIO TITLE "Fish Market Dance" PERFORMER "The Rhythmagic Orchestra" INDEX 00 14:25:29 INDEX 01 14:25:47 TRACK 06 AUDIO TITLE "Sakeena" PERFORMER "The Rhythmagic Orchestra" INDEX 00 18:07:10 INDEX 01 18:07:48 TRACK 07 AUDIO TITLE "Afreaka" PERFORMER "The Rhythmagic Orchestra" INDEX 00 22:13:46 INDEX 01 22:14:16 TRACK 08 AUDIO TITLE "Gulli Gulli" PERFORMER "The Rhythmagic Orchestra" INDEX 00 27:18:01 INDEX 01 27:19:03 TRACK 09 AUDIO TITLE "Mary Lou" PERFORMER "The Rhythmagic Orchestra" INDEX 00 32:47:47 INDEX 01 32:48:60 TRACK 10 AUDIO TITLE "Tururato" PERFORMER "The Rhythmagic Orchestra" INDEX 00 38:20:35 INDEX 01 38:21:13 TRACK 11 AUDIO TITLE "Manteca" PERFORMER "The Rhythmagic Orchestra" INDEX 00 41:44:12 INDEX 01 41:44:51
 
-----------------------

DON'T MODIFY THIS FILE

-----------------------

PERFORMER: auCDtect Task Manager, ver. 1.5.1RC4 build 1.5.1.5Copyright (c) 2008-2010 y-soft. All rights reservedhttp://y-soft.org

ANALYZER: auCDtect: CD records authenticity detector, version 0.8.2Copyright (c) 2004 Oleg Berngardt. All rights reserved.Copyright (c) 2004 Alexander Djourik. All rights reserved.

FILE: The Rhythmagic Orchestra - The Rhythmagic Orchestra.wv Size: 307954074 Hash: 49627B93AF0BA2AADFBCA05F86F94AA2 Accuracy: -m0 Conclusion: CDDA 100% Signature: A8DC58FD312A2CF56C70B4A2026966DA22754EF5


Трекер:  [ 28-Янв-2012 15:49 ]

  

Скачать .torrent

Размер .torrent файла 13 KB


Размер: 308 MB
Хэш (hash) релиза: abc831571fd6f5f2a6642e43cdb5f5901775059c

Еще никто не оставлял запись к записи скачать торрент The Rhythmagic Orchestra - The Rhythmagic Orchestra 201 . Будь первым!

!Обратная связь