Скачать через торрент музыку VA - Harmonica Masters - 1996, FLAC бесплатно без регистрации torrent

Если у вас наблюдаются проблемы со скриншотами, переходом по ссылками, скачиванием торрентов - проблемы в блокировщике рекламы AdBlock. #хорошегоДня!


Статистика раздачи
Размер:  274 MB   |    Зарегистрирован:  5 лет 8 месяцев   |    .torrent скачан:  38 раз   |   
Раздают:  1  
   
Загрузка...
 
Автор Сообщение

Umakiro

avatar Umakiro


VA - Harmonica Masters

Жанр: blues / harp
Страна-производитель диска: USA
Год издания диска: 1996
Издатель (лейбл): Yazoo
Номер по каталогу: 2019
Страна: USA
Аудио кодек: FLAC (*.flac)
Тип рипа: image+.cue
Битрейт аудио: lossless
Продолжительность: 71:21
Наличие сканов в содержимом раздачи: а как же!
Треклист:
01. DeFord Bailey - Ice Water Blues
02. Palmer McAbee - Lost Boy Blues
03. Alfred Lewis - Mississippi Swamp Moan
04. Kyle Wooten - Choking Blues
05. Noah Lewis - Chickasaw Special
06. Six Cylinder Smith - Pennsylvania Woman Blues
07. Dr. Humphrey Bates' Possum Hunters - Take Your Foot Out of the Mud & Put it In The Sand
08. The Bubbling Over Five - Don't Mistreat Your Good Boy Friend
09. Murphy Brothers Harp Band - The Downfall of Paris
10. George 'Bullet' Williams - Touch Me Light Mama
11. Dutch Coleman and Red Whitehead - Booneville Stomp
12. Jed Davenport - How Long Blues
13. Ashley & Foster - East Virginia Blues
14. Crook Brothers - Goin' Cross the Sea
15. William McCoy - Just It
16. Gwen Foster - Wilkes County Blues
17. Jaybird Coleman - Man Trouble Blues
18. Salty Holmes - I Want My Mama
19. David McCarn - Gastonia Gallop
20. Leecan & Cooksey - Don't Let Your Heart Hang Down
21. Carver Brothers - Sisco Harmonica Blues
22. Sleepy John Estes - Down South Blues
23. Freeman Stowers - Medley of Blues
 
Exact Audio Copy V0.99 prebeta 4 from 23. January 2008

Отчёт EAC об извлечении, выполненном 14. сентября 2010, 19:00

Various / Harmonica Masters

Дисковод: PIONEER DVD-RW DVR-110D Adapter: 1 ID: 1

Режим чтения : ДостоверностьИспользование точного потока : ДаОтключение кэша аудио : ДаИспользование указателей C2 : Нет

Коррекция смещения при чтении : 48Способность читать области Lead-in и Lead-out : НетЗаполнение пропущенных сэмплов тишиной : ДаУдаление блоков с тишиной в начале и конце : НетПри вычислениях CRC использовались нулевые сэмплы : ДаИнтерфейс : Встроенный Win32-интерфейс для Win NT/2000

Выходной формат : Пользовательский кодировщикВыбранный битрейт : 896 kBit/sКачество : ВысокийДобавление ID3-тэга : НетУтилита сжатия : C:\Program Files\Exact Audio Copy\FLAC\FLAC.EXEДополнительные параметры : -6 -V -T "ARTIST=%a" -T "TITLE=%t" -T "ALBUM=%g" -T "DATE=%y" -T "TRACKNUMBER=%n" -T "GENRE=%m" -T "COMMENT=%e" %s -o %d

TOC извлечённого CD

Трек | Старт | Длительность | Начальный сектор | Конечный сектор --------------------------------------------------------------------- 1 | 0:00.32 | 3:18.35 | 32 | 14916 2 | 3:18.67 | 3:23.33 | 14917 | 30174 3 | 6:42.25 | 3:18.12 | 30175 | 45036 4 | 10:00.37 | 3:12.68 | 45037 | 59504 5 | 13:13.30 | 3:20.12 | 59505 | 74516 6 | 16:33.42 | 3:10.60 | 74517 | 88826 7 | 19:44.27 | 2:48.48 | 88827 | 101474 8 | 22:33.00 | 3:17.55 | 101475 | 116304 9 | 25:50.55 | 3:07.37 | 116305 | 130366 10 | 28:58.17 | 2:46.00 | 130367 | 142816 11 | 31:44.17 | 3:29.20 | 142817 | 158511 12 | 35:13.37 | 2:54.38 | 158512 | 171599 13 | 38:08.00 | 2:58.07 | 171600 | 184956 14 | 41:06.07 | 2:52.20 | 184957 | 197876 15 | 43:58.27 | 3:19.58 | 197877 | 212859 16 | 47:18.10 | 2:54.20 | 212860 | 225929 17 | 50:12.30 | 3:03.12 | 225930 | 239666 18 | 53:15.42 | 2:50.48 | 239667 | 252464 19 | 56:06.15 | 2:40.40 | 252465 | 264504 20 | 58:46.55 | 3:00.65 | 264505 | 278069 21 | 61:47.45 | 3:19.25 | 278070 | 293019 22 | 65:06.70 | 3:11.40 | 293020 | 307384 23 | 68:18.35 | 3:02.57 | 307385 | 321091

Характеристики диапазона извлечения и сообщения об ошибках

Выбранный диапазон

Имя файла G:\Torrents\Harmonica Masters\Various - Harmonica Masters.wav

Пиковый уровень 93.4 % Качество диапазона 99.9 % CRC теста B8CE0BC7 CRC копии B8CE0BC7 Копирование... OK

Ошибок не произошло

AccurateRip: сводка

Трек 1 точное извлечение (доверие 3) [2E36DAEC]Трек 2 точное извлечение (доверие 3) [7E48FFDC]Трек 3 точное извлечение (доверие 3) [10515209]Трек 4 точное извлечение (доверие 3) [46E07A9B]Трек 5 точное извлечение (доверие 3) [7AD03F34]Трек 6 точное извлечение (доверие 3) [5D6BA233]Трек 7 точное извлечение (доверие 3) [A152DBEF]Трек 8 точное извлечение (доверие 3) [AE0F4922]Трек 9 точное извлечение (доверие 3) [8F609B1F]Трек 10 точное извлечение (доверие 3) [EC69E58F]Трек 11 точное извлечение (доверие 3) [AC30FA41]Трек 12 точное извлечение (доверие 3) [1A4DE7A5]Трек 13 точное извлечение (доверие 3) [E40048D6]Трек 14 точное извлечение (доверие 3) [834BB0E1]Трек 15 точное извлечение (доверие 3) [1C3EA436]Трек 16 точное извлечение (доверие 3) [02C02867]Трек 17 точное извлечение (доверие 3) [5120C0C9]Трек 18 точное извлечение (доверие 3) [40CB101D]Трек 19 точное извлечение (доверие 3) [8070EE7E]Трек 20 точное извлечение (доверие 3) [4D2587E2]Трек 21 точное извлечение (доверие 3) [2AE01A8E]Трек 22 точное извлечение (доверие 3) [A52F61A5]Трек 23 точное извлечение (доверие 3) [12A3B8B5]

Все треки извлечены точно

Конец отчёта


Трекер:  [ 28-Янв-2012 15:46 ]

  

Скачать .torrent

Размер .torrent файла 11 KB


Размер: 274 MB
Хэш (hash) релиза: 045e7537b7efa916a3dc5e0d5fe2f4e99e9de563

Еще никто не оставлял запись к записи скачать торрент VA - Harmonica Masters - 1996, FLAC . Будь первым!

!Обратная связь