Скачать через торрент музыку Martin Taylors Spirit Of Django - Last Train To Hauteville - 2010, APE бесплатно без регистрации torrent

Если у вас наблюдаются проблемы со скриншотами, переходом по ссылками, скачиванием торрентов - проблемы в блокировщике рекламы AdBlock. #хорошегоДня!


Статистика раздачи
Размер:  347 MB   |    Зарегистрирован:  5 лет 8 месяцев   |    .torrent скачан:  34 раза   |   
Раздают:  1  
   
Загрузка...
 
Автор Сообщение

Umakiro

avatar Umakiro


Martin Taylor's Spirit Of Django - Last Train To Hauteville

Жанр: Jazz/Swing
Страна-производитель диска: UK
Год издания диска: 2010
Издатель (лейбл): P3 Music Ltd
Номер по каталогу: P3MCD023
Страна: England
Аудио кодек: APE (*.ape)
Тип рипа: image+.cue
Битрейт аудио: lossless
Продолжительность: 00:58:05
Источник (релизер): Диск из личной коллекции
Наличие сканов в содержимом раздачи: да
Треклист:
01. Last Train to Hauteville
02. Rue de Dinan
03. Le Jardin Anglais
04. Double Scotch
05. La Mer
06. Madame Haricot
07. Roberta
08. Mirette
09. La Javanaise
10. La Touche
11. J'Attendrai
12. Monsieur Jacques
13. La Belle Dundee
 
Exact Audio Copy V0.99 prebeta 4 from 23. January 2008

Отчёт EAC об извлечении, выполненном 21. декабря 2010, 20:56

Martin Taylor / Last Train To Hauteville

Дисковод: HL-DT-STDVDRAM GH20LS10 Adapter: 2 ID: 0

Режим чтения : ДостоверностьИспользование точного потока : ДаОтключение кэша аудио : ДаИспользование указателей C2 : Нет

Коррекция смещения при чтении : 667Способность читать области Lead-in и Lead-out : НетЗаполнение пропущенных сэмплов тишиной : ДаУдаление блоков с тишиной в начале и конце : НетПри вычислениях CRC использовались нулевые сэмплы : ДаИнтерфейс : Встроенный Win32-интерфейс для Win NT/2000

Выходной формат : Внутренние WAV-операцииФормат сэмплов : 44.100 Гц; 16 бит; стерео

TOC извлечённого CD

Трек | Старт | Длительность | Начальный сектор | Конечный сектор --------------------------------------------------------------------- 1 | 0:00.00 | 3:51.47 | 0 | 17371 2 | 3:51.47 | 5:34.74 | 17372 | 42495 3 | 9:26.46 | 4:42.03 | 42496 | 63648 4 | 14:08.49 | 3:52.59 | 63649 | 81107 5 | 18:01.33 | 3:45.15 | 81108 | 97997 6 | 21:46.48 | 3:41.25 | 97998 | 114597 7 | 25:27.73 | 3:23.73 | 114598 | 129895 8 | 28:51.71 | 7:11.26 | 129896 | 162246 9 | 36:03.22 | 5:29.05 | 162247 | 186926 10 | 41:32.27 | 4:38.73 | 186927 | 207849 11 | 46:11.25 | 4:05.40 | 207850 | 226264 12 | 50:16.65 | 3:06.12 | 226265 | 240226 13 | 53:23.02 | 4:42.01 | 240227 | 261377

Характеристики диапазона извлечения и сообщения об ошибках

Выбранный диапазон

Имя файла D:\Lossless\Martin Taylor- 2010\Martin Taylor - Last Train To Hauteville.wav

Пиковый уровень 98.9 % Качество диапазона 99.9 % CRC копии 8C7959C1 Копирование... OK

Ошибок не произошло

Конец отчёта
REM GENRE Jazz
REM DATE 2010
REM DISCID AB0D9D0D
REM COMMENT "ExactAudioCopy v0.99pb4"
PERFORMER "Martin Taylor"
TITLE "Last Train To Hauteville"
FILE "Martin Taylor - Last Train To Hauteville.wav" WAVE
TRACK 01 AUDIO
TITLE "Last Train to Hauteville"
PERFORMER "Martin Taylor"
INDEX 01 00:00:00
TRACK 02 AUDIO
TITLE "Rue de Dinan"
PERFORMER "Martin Taylor"
INDEX 01 03:51:47
TRACK 03 AUDIO
TITLE "Le Jardin Anglais"
PERFORMER "Martin Taylor"
INDEX 01 09:26:46
TRACK 04 AUDIO
TITLE "Double Scotch"
PERFORMER "Martin Taylor"
INDEX 01 14:08:49
TRACK 05 AUDIO
TITLE "La Mer"
PERFORMER "Martin Taylor"
INDEX 01 18:01:33
TRACK 06 AUDIO
TITLE "Madame Haricot"
PERFORMER "Martin Taylor"
INDEX 01 21:46:48
TRACK 07 AUDIO
TITLE "Roberta"
PERFORMER "Martin Taylor"
INDEX 01 25:27:73
TRACK 08 AUDIO
TITLE "Mirette"
PERFORMER "Martin Taylor"
INDEX 01 28:51:71
TRACK 09 AUDIO
TITLE "La Javanaise"
PERFORMER "Martin Taylor"
INDEX 01 36:03:22
TRACK 10 AUDIO
TITLE "La Touche"
PERFORMER "Martin Taylor"
INDEX 01 41:32:27
TRACK 11 AUDIO
TITLE "J'Attendrai"
PERFORMER "Martin Taylor"
INDEX 01 46:11:25
TRACK 12 AUDIO
TITLE "Monsieur Jacques"
PERFORMER "Martin Taylor"
INDEX 01 50:16:65
TRACK 13 AUDIO
TITLE "La Belle Dundee"
PERFORMER "Martin Taylor"
INDEX 01 53:23:02
Martin Taylor - Guitar and Mandolins
Jack Emblow - Accordion
Alan Barnes - Vicals
John Goldie - Rhythm Guitar
Terry Gregory - Bass
James Taylor - Drums & Percussion


Трекер:  [ 28-Янв-2012 15:21 ]

  

Скачать .torrent

Размер .torrent файла 14 KB


Размер: 347 MB
Хэш (hash) релиза: bb7a8c4dedb0e2a286db218691bfba78bde702a5

Еще никто не оставлял запись к записи скачать торрент Martin Taylors Spirit Of Django - Last Train To Hauteville - 2010, APE . Будь первым!

!Обратная связь