Скачать через торрент музыку Geoff Achison - Chasing My Tail - 2002, APE бесплатно без регистрации torrent

Если у вас наблюдаются проблемы со скриншотами, переходом по ссылками, скачиванием торрентов - проблемы в блокировщике рекламы AdBlock. #хорошегоДня!


Статистика раздачи
Размер:  331 MB   |    Зарегистрирован:  5 лет 8 месяцев   |    .torrent скачан:  27 раз   |   
Раздают:  1  
   
Загрузка...
 
Автор Сообщение

Umakiro

avatar Umakiro


Geoff Achison / Chasing My Tail

Жанр: Blues-Rock
Страна-производитель диска: Australia
Год издания диска: 2002
Издатель (лейбл): Jupiter 2 Records
Номер по каталогу: GRACD606
Страна: Australia
Аудио кодек: APE (*.ape)
Тип рипа: image+.cue
Битрейт аудио: lossless
Продолжительность: 00:54:50
Источник (релизер): Диск из личной коллекции
Наличие сканов в содержимом раздачи: да
Треклист:
1. Chance (3'54)
2. Kerry Lou (5'23)
3. You And I (4'10)
4. Begging Bowl (4'45)
5. Find Yourself A Fool (3'27)
6. Chasing My Tail (4'07)
7. Me And My Baby (3'56)
8. Reason To Live (6'06)
9. Let It Happen (4'23)
10. Kissing Angels (4'27)
11. Wipping Post (5'48)
12. All The Way (4'19)
 
Exact Audio Copy V0.99 prebeta 4 from 23. January 2008

Отчёт EAC об извлечении, выполненном 11. марта 2011, 22:05

Geoff Achison / Chasing My Tail

Дисковод: HL-DT-STDVDRAM GH20LS10 Adapter: 2 ID: 0

Режим чтения : ДостоверностьИспользование точного потока : ДаОтключение кэша аудио : ДаИспользование указателей C2 : Нет

Коррекция смещения при чтении : 667Способность читать области Lead-in и Lead-out : НетЗаполнение пропущенных сэмплов тишиной : ДаУдаление блоков с тишиной в начале и конце : НетПри вычислениях CRC использовались нулевые сэмплы : ДаИнтерфейс : Встроенный Win32-интерфейс для Win NT/2000

Выходной формат : Внутренние WAV-операцииФормат сэмплов : 44.100 Гц; 16 бит; стерео

TOC извлечённого CD

Трек | Старт | Длительность | Начальный сектор | Конечный сектор --------------------------------------------------------------------- 1 | 0:00.00 | 3:54.38 | 0 | 17587 2 | 3:54.38 | 5:23.33 | 17588 | 41845 3 | 9:17.71 | 4:10.44 | 41846 | 60639 4 | 13:28.40 | 4:45.41 | 60640 | 82055 5 | 18:14.06 | 3:27.21 | 82056 | 97601 6 | 21:41.27 | 4:07.28 | 97602 | 116154 7 | 25:48.55 | 3:56.67 | 116155 | 133921 8 | 29:45.47 | 6:06.22 | 133922 | 161393 9 | 35:51.69 | 4:23.18 | 161394 | 181136 10 | 40:15.12 | 4:27.38 | 181137 | 201199 11 | 44:42.50 | 5:47.23 | 201200 | 227247 12 | 50:29.73 | 4:20.09 | 227248 | 246756

Характеристики диапазона извлечения и сообщения об ошибках

Выбранный диапазон

Имя файла D:\Lossless\Geoff Achison-Chasing My Tail-2002\Geoff Achison - Chasing My Tail.wav

Пиковый уровень 100.0 % Качество диапазона 99.9 % CRC копии D2842DB3 Копирование... OK

Ошибок не произошло

AccurateRip: сводка

Трек 1 точность не определена (достоверность 2) [615FAC72], AccurateRip вернул [3E1E8DE5]Трек 2 точность не определена (достоверность 2) [DF20F374], AccurateRip вернул [2A785F28]Трек 3 точность не определена (достоверность 2) [6809C1DA], AccurateRip вернул [1A33698B]Трек 4 точность не определена (достоверность 2) [0A27EFAF], AccurateRip вернул [DD23CF5F]Трек 5 точность не определена (достоверность 2) [7E9F57B9], AccurateRip вернул [7A2DA59F]Трек 6 точность не определена (достоверность 2) [6B7C9F24], AccurateRip вернул [0E48A122]Трек 7 точность не определена (достоверность 2) [7FEE1A83], AccurateRip вернул [82562139]Трек 8 точность не определена (достоверность 2) [9E524A4D], AccurateRip вернул [FE90D09F]Трек 9 точность не определена (достоверность 2) [3941E74D], AccurateRip вернул [0AD0BA31]Трек 10 точность не определена (достоверность 2) [67603D51], AccurateRip вернул [4AB9F125]Трек 11 точность не определена (достоверность 2) [5E2533AA], AccurateRip вернул [B408B4BA]Трек 12 точность не определена (достоверность 2) [58EACA3D], AccurateRip вернул [79E45291]

Ни один трек не прошёл проверки на точностьВ вашей базе может быть иной вариант штамповки диска

Конец отчёта
 
REM GENRE bluesREM DATE 2002REM DISCID 960CDA0CREM COMMENT "ExactAudioCopy v0.99pb4"PERFORMER "Geoff Achison"TITLE "Chasing My Tail"FILE "Geoff Achison - Chasing My Tail.wav" WAVE TRACK 01 AUDIO TITLE "Chance" PERFORMER "Geoff Achison" INDEX 01 00:00:00 TRACK 02 AUDIO TITLE "Kerry Lou" PERFORMER "Geoff Achison" INDEX 01 03:54:38 TRACK 03 AUDIO TITLE "You and I" PERFORMER "Geoff Achison" INDEX 01 09:17:71 TRACK 04 AUDIO TITLE "Begging Bowl" PERFORMER "Geoff Achison" INDEX 01 13:28:40 TRACK 05 AUDIO TITLE "Find Yourself a Fool" PERFORMER "Geoff Achison" INDEX 01 18:14:06 TRACK 06 AUDIO TITLE "Chasing My Tail" PERFORMER "Geoff Achison" INDEX 01 21:41:27 TRACK 07 AUDIO TITLE "Me and My Baby" PERFORMER "Geoff Achison" INDEX 01 25:48:55 TRACK 08 AUDIO TITLE "Reason To Live" PERFORMER "Geoff Achison" INDEX 01 29:45:47 TRACK 09 AUDIO TITLE "Let It Happen" PERFORMER "Geoff Achison" INDEX 01 35:51:69 TRACK 10 AUDIO TITLE "Kissing Angels" PERFORMER "Geoff Achison" INDEX 01 40:15:12 TRACK 11 AUDIO TITLE "Whipping Post" PERFORMER "Geoff Achison" INDEX 01 44:42:50 TRACK 12 AUDIO TITLE "All The Way" PERFORMER "Geoff Achison" INDEX 01 50:29:73
На мой взгляд не менее стильный альбом, чем LIttle Big Men-2005, который выложил ЗУ,и который, я бы добавил, незаслуженно обошли вниманием любители жанра (релиз скачан не более 50 раз)! Дело в том, друзья мои, что мы (особенно я) часто считаем, что знаем все о своем любимом стиле, и имена не американские, равно как и диски не новых изданий нас уже никогда не удивят и не соблазнят...Я не сторонник покупать все подряд, но если меня тронет какой-то дисочек, то сколько б он ни стоил,я его добуду! Австралиец Geoff Achison в 1995 году получил награду Альберта Кинга как самый много обещающий молодой гитарист! Его альбомы очень редкие, наверное из-за страны и издательства, поэтому обратите на этого парня внимание: стильно, изысканно и вкусно звучит его блюз, причем очень неожиданы гармонические переходы, клево звучит орган, а после 7-го трэка я не выдержал и побежал за гитарой!
Geoff Achison - Acoustic & Electric Guitars/Vocals
THE SOULDIGGERS...tracks 1,2,6,8,9:
Mal Logan - Keyboards
Roger McLachlan - Bass
Gerry Pantazis - Drums

HORNS FROM HELL...tracks 1,2,8,9:
Paul Williamson - Saxophone
Tibor Gyapjas - Trumpet
David Paimer - Trombone
Horn arrangements - Paul williamson

CLASSICALLY BLUE...tracks 3,10:
Adrian Keating - Violin
Deborah Lander - Viola
Tom Kimber - Cello

NOT ONLY THAT BUT ALSO...
Dean Addison - Double Bass
Andy Swann - Drums
Mick O'Conner - Hammond Organ
Ray Flegg - Slide Guitars
George Butrumlis - Accordion


Трекер:  [ 28-Янв-2012 15:20 ]

  

Скачать .torrent

Размер .torrent файла 14 KB


Размер: 331 MB
Хэш (hash) релиза: 897a5dda715d98357f0ecf35f6388998829a6a4e

Еще никто не оставлял запись к записи скачать торрент Geoff Achison - Chasing My Tail - 2002, APE . Будь первым!

!Обратная связь