Скачать через торрент музыку Jimmy Hall - Rendezvous With The Blues - 1996, APE бесплатно без регистрации torrent

Если у вас наблюдаются проблемы со скриншотами, переходом по ссылками, скачиванием торрентов - проблемы в блокировщике рекламы AdBlock. #хорошегоДня!


Статистика раздачи
Размер:  309 MB   |    Зарегистрирован:  5 лет 8 месяцев   |    .torrent скачан:  19 раз   |   
Раздают:  1  
   
Загрузка...
 
Автор Сообщение

Umakiro

avatar Umakiro


Jimmy Hall - Rendezvous With The Blues

Жанр: Blues-Rock
Страна-производитель диска: USA
Год издания диска: 1996
Издатель (лейбл): Capricorn records
Номер по каталогу: 314-532-460-2
Страна: USA
Аудио кодек: APE (*.ape)
Тип рипа: image+.cue
Битрейт аудио: lossless
Продолжительность: 00:51:53
Источник (релизер): Любимый диск из личной коллекции
Наличие сканов в содержимом раздачи: да
Треклист:
1. That's The Truth (3'00)
2. Don't Hit Me No More (5'18)
3. Twenty-Nine Ways To My Baby's Door (3'59)
4. Rendezvous With The Blues (4'29)
5. Long Distance Call (6'48)
6. Too Tall To Mambo (4'25)
7. A Change Is Gonna Come (5'14)
8. The Hunter (5'30)
9. Weep And Moan (4'04)
10. Hold What You Got (5'21)
11. The Money Doesn't Matter (2'31)
 
Exact Audio Copy V0.99 prebeta 4 from 23. January 2008

Отчёт EAC об извлечении, выполненном 20. марта 2011, 13:22

Jimmy Hall / Rendezvous with the Blues

Дисковод: HL-DT-STDVDRAM GH20LS10 Adapter: 1 ID: 1

Режим чтения : ДостоверностьИспользование точного потока : ДаОтключение кэша аудио : ДаИспользование указателей C2 : Нет

Коррекция смещения при чтении : 667Способность читать области Lead-in и Lead-out : НетЗаполнение пропущенных сэмплов тишиной : ДаУдаление блоков с тишиной в начале и конце : НетПри вычислениях CRC использовались нулевые сэмплы : ДаИнтерфейс : Встроенный Win32-интерфейс для Win NT/2000

Выходной формат : Внутренние WAV-операцииФормат сэмплов : 44.100 Гц; 16 бит; стерео

TOC извлечённого CD

Трек | Старт | Длительность | Начальный сектор | Конечный сектор --------------------------------------------------------------------- 1 | 0:00.00 | 3:01.52 | 0 | 13626 2 | 3:01.52 | 5:19.18 | 13627 | 37569 3 | 8:20.70 | 4:01.67 | 37570 | 55711 4 | 12:22.62 | 4:31.08 | 55712 | 76044 5 | 16:53.70 | 6:49.35 | 76045 | 106754 6 | 23:43.30 | 4:27.37 | 106755 | 126816 7 | 28:10.67 | 5:16.40 | 126817 | 150556 8 | 33:27.32 | 5:26.55 | 150557 | 175061 9 | 38:54.12 | 4:05.22 | 175062 | 193458 10 | 42:59.34 | 6:22.16 | 193459 | 222124 11 | 49:21.50 | 2:32.15 | 222125 | 233539

Характеристики диапазона извлечения и сообщения об ошибках

Выбранный диапазон

Имя файла D:\Lossless\Jimmy Hall - Rendezvous With Thw Blues -1996\Jimmy Hall - Rendezvous with the Blues.wav

Пиковый уровень 97.6 % Качество диапазона 100.0 % CRC копии 7EAE9AD9 Копирование... OK

Ошибок не произошло

AccurateRip: сводка

Трек 1 точное извлечение (доверие 6) [D86D5620]Трек 2 точное извлечение (доверие 7) [37AAB0F0]Трек 3 точное извлечение (доверие 7) [18404C86]Трек 4 точное извлечение (доверие 7) [1A5D9B04]Трек 5 точное извлечение (доверие 7) [5EC94E25]Трек 6 точное извлечение (доверие 7) [9CBB23EF]Трек 7 точное извлечение (доверие 7) [3D60FBBE]Трек 8 точное извлечение (доверие 7) [2175E770]Трек 9 точное извлечение (доверие 7) [84742D75]Трек 10 точное извлечение (доверие 7) [EF1F1AE1]Трек 11 точное извлечение (доверие 6) [B99568B0]

Все треки извлечены точно

Конец отчёта
 
REM GENRE "Southern Rock"REM DATE 1996REM DISCID 860C290BREM COMMENT "ExactAudioCopy v0.99pb4"PERFORMER "Jimmy Hall"TITLE "Rendezvous with the Blues"FILE "Jimmy Hall - Rendezvous with the Blues.wav" WAVE TRACK 01 AUDIO TITLE "That's The Truth" PERFORMER "Jimmy Hall" INDEX 01 00:00:00 TRACK 02 AUDIO TITLE "Don't Hit My No More" PERFORMER "Jimmy Hall" INDEX 01 03:01:52 TRACK 03 AUDIO TITLE "Twenty-Nine Ways" PERFORMER "Jimmy Hall" INDEX 01 08:20:70 TRACK 04 AUDIO TITLE "Rendesvous With The Blues" PERFORMER "Jimmy Hall" INDEX 01 12:22:62 TRACK 05 AUDIO TITLE "Long Distance Call" PERFORMER "Jimmy Hall" INDEX 01 16:53:70 TRACK 06 AUDIO TITLE "Too Tall To Mambo" PERFORMER "Jimmy Hall" INDEX 01 23:43:30 TRACK 07 AUDIO TITLE "A Change Is Gonna Come" PERFORMER "Jimmy Hall" INDEX 00 28:09:45 INDEX 01 28:10:67 TRACK 08 AUDIO TITLE "The Hunter" PERFORMER "Jimmy Hall" INDEX 00 33:25:62 INDEX 01 33:27:32 TRACK 09 AUDIO TITLE "Weep and Moan" PERFORMER "Jimmy Hall" INDEX 00 38:52:37 INDEX 01 38:54:12 TRACK 10 AUDIO TITLE "Hold What You Got" PERFORMER "Jimmy Hall" INDEX 01 42:59:34 TRACK 11 AUDIO TITLE "The Money Doesn't Matter" PERFORMER "Jimmy Hall" INDEX 01 49:21:50
Jimmy Hall - vocal, harp & saxophone
Bill Stewart - drums
David Hood - bass
Jack Pearson - slide-guitar
Kevin Holly - rhythm guitar
Clayton Ivey-Wurlitzer - piano


Трекер:  [ 28-Янв-2012 15:19 ]

  

Скачать .torrent

Размер .torrent файла 13 KB


Размер: 309 MB
Хэш (hash) релиза: 0ef54a7757ae692bcbebbbf07b497ffdb3010aee

Еще никто не оставлял запись к записи скачать торрент Jimmy Hall - Rendezvous With The Blues - 1996, APE . Будь первым!

!Обратная связь