Скачать через торрент музыку Jean Jacques Milteau - Fragile - 2005, APE бесплатно без регистрации torrent

Если у вас наблюдаются проблемы со скриншотами, переходом по ссылками, скачиванием торрентов - проблемы в блокировщике рекламы AdBlock. #хорошегоДня!


Статистика раздачи
Размер:  304 MB   |    Зарегистрирован:  5 лет 8 месяцев   |    .torrent скачан:  38 раз   |   
Раздают:  1  
   
Загрузка...
 
Автор Сообщение

Umakiro

avatar Umakiro


Jean Jacques Milteau - Fragile

Жанр: Blues/Harmonica Blues
Страна-производитель диска: France
Год издания диска: 2005
Издатель (лейбл): Universal Music France
Номер по каталогу: 983559 8
Страна: France
Аудиокодек: APE (*.ape)
Тип рипа: image+.cue
Битрейт аудио: lossless
Продолжительность: 00:51:28
Источник (релизер): Диск из личной коллекции
Наличие сканов в содержимом раздачи: да
Треклист:

1. Fragile
2. Jack the Man (with Demi Evans)
3. Best Meal on Beale
4. It's a Man's Man's Man's World (with Michelle Shocked)
5. Reconciliation
6. You're No Good (with Demi Evans)
7. Coyoacan
8. Sweet Tooth (with Michelle Shocked)
9. Obok
10. My Share (with Demi Evans)
11. Checkpoint
12. Blackjack Heart (with Michelle Shocked)
13. L'Internationale
 
Exact Audio Copy V0.99 prebeta 4 from 23. January 2008

Отчёт EAC об извлечении, выполненном 22. июля 2011, 19:05

Jean-Jacques Milteau / Fragile

Дисковод: HL-DT-STDVDRAM GH20LS10 Adapter: 3 ID: 1

Режим чтения : ДостоверностьИспользование точного потока : ДаОтключение кэша аудио : ДаИспользование указателей C2 : Нет

Коррекция смещения при чтении : 667Способность читать области Lead-in и Lead-out : НетЗаполнение пропущенных сэмплов тишиной : ДаУдаление блоков с тишиной в начале и конце : НетПри вычислениях CRC использовались нулевые сэмплы : ДаИнтерфейс : Встроенный Win32-интерфейс для Win NT/2000

Выходной формат : Внутренние WAV-операцииФормат сэмплов : 44.100 Гц; 16 бит; стерео

TOC извлечённого CD

Трек | Старт | Длительность | Начальный сектор | Конечный сектор --------------------------------------------------------------------- 1 | 0:00.00 | 5:00.37 | 0 | 22536 2 | 5:00.37 | 3:06.70 | 22537 | 36556 3 | 8:07.32 | 3:22.43 | 36557 | 51749 4 | 11:30.00 | 3:45.18 | 51750 | 68642 5 | 15:15.18 | 4:30.39 | 68643 | 88931 6 | 19:45.57 | 4:02.04 | 88932 | 107085 7 | 23:47.61 | 4:17.72 | 107086 | 126432 8 | 28:05.58 | 1:27.01 | 126433 | 132958 9 | 29:32.59 | 3:42.25 | 132959 | 149633 10 | 33:15.09 | 4:10.17 | 149634 | 168400 11 | 37:25.26 | 5:38.63 | 168401 | 193813 12 | 43:04.14 | 3:54.19 | 193814 | 211382 13 | 46:58.33 | 4:29.45 | 211383 | 231602

Характеристики диапазона извлечения и сообщения об ошибках

Выбранный диапазон

Имя файла D:\Lossless\JJ Milteau - Fragile-2005\Jean-Jacques Milteau - Fragile.wav

Пиковый уровень 100.0 % Качество диапазона 100.0 % CRC теста 0572D4CB CRC копии 0572D4CB Копирование... OK

Ошибок не произошло

AccurateRip: сводка

Трек 1 точное извлечение (доверие 6) [0F33CA24]Трек 2 точное извлечение (доверие 6) [E988707E]Трек 3 точное извлечение (доверие 6) [8F2347EE]Трек 4 точное извлечение (доверие 6) [2C72B95A]Трек 5 точное извлечение (доверие 6) [D9977D10]Трек 6 точное извлечение (доверие 6) [06946EED]Трек 7 точное извлечение (доверие 6) [0D392704]Трек 8 точное извлечение (доверие 6) [64598921]Трек 9 точное извлечение (доверие 6) [8DBA9A22]Трек 10 точное извлечение (доверие 6) [A4401664]Трек 11 точное извлечение (доверие 6) [1422EA3B]Трек 12 точное извлечение (доверие 6) [6026432F]Трек 13 точное извлечение (доверие 6) [C9D8C2E1]

Все треки извлечены точно

Конец отчёта
 
REM GENRE BluesREM DATE 2005REM DISCID D20C100DREM COMMENT "ExactAudioCopy v0.99pb4"PERFORMER "Jean-Jacques Milteau"TITLE "Fragile"FILE "Jean-Jacques Milteau - Fragile.wav" WAVE TRACK 01 AUDIO TITLE "Fragile" PERFORMER "Jean-Jacques Milteau" INDEX 01 00:00:00 TRACK 02 AUDIO TITLE "Jack The Man" PERFORMER "Jean-Jacques Milteau" INDEX 01 05:00:37 TRACK 03 AUDIO TITLE "Best Meal On Beale" PERFORMER "Jean-Jacques Milteau" INDEX 00 08:05:42 INDEX 01 08:07:32 TRACK 04 AUDIO TITLE "It's A Man's Man's World" PERFORMER "Jean-Jacques Milteau" INDEX 00 11:28:56 INDEX 01 11:30:00 TRACK 05 AUDIO TITLE "Reconciliation" PERFORMER "Jean-Jacques Milteau" INDEX 00 15:12:29 INDEX 01 15:15:18 TRACK 06 AUDIO TITLE "You're No Good" PERFORMER "Jean-Jacques Milteau" INDEX 00 19:44:21 INDEX 01 19:45:57 TRACK 07 AUDIO TITLE "cocoyacan" PERFORMER "Jean-Jacques Milteau" INDEX 00 23:46:26 INDEX 01 23:47:61 TRACK 08 AUDIO TITLE "Sweet Tooth" PERFORMER "Jean-Jacques Milteau" INDEX 01 28:05:58 TRACK 09 AUDIO TITLE "Obok" PERFORMER "Jean-Jacques Milteau" INDEX 00 29:30:02 INDEX 01 29:32:59 TRACK 10 AUDIO TITLE "My Share" PERFORMER "Jean-Jacques Milteau" INDEX 00 33:13:71 INDEX 01 33:15:09 TRACK 11 AUDIO TITLE "Checkpoint" PERFORMER "Jean-Jacques Milteau" INDEX 01 37:25:26 TRACK 12 AUDIO TITLE "Blackjack Heart" PERFORMER "Jean-Jacques Milteau" INDEX 00 43:02:04 INDEX 01 43:04:14 TRACK 13 AUDIO TITLE "L'Internationale" PERFORMER "Jean-Jacques Milteau" INDEX 00 46:55:56 INDEX 01 46:58:33
Jean-Jacques Milteau - harmonicas
Demi Evans - vocals
Michelle Shocked - vocals
Benoit Sourisse - Fender Rhodes
Manu Galvin - acoustic guitar, uke
Jean-Michel Charbonnel - upright bass
Andre' Charlier - drums


Трекер:  [ 28-Янв-2012 15:19 ]

  

Скачать .torrent

Размер .torrent файла 13 KB


Размер: 304 MB
Хэш (hash) релиза: 1bcfe4e6efb81a4244a42e3a32b99bd23691f556

Еще никто не оставлял запись к записи скачать торрент Jean Jacques Milteau - Fragile - 2005, APE . Будь первым!

!Обратная связь