Скачать через торрент музыку Eliane Elias - Light My Fire - 2011, APE бесплатно без регистрации torrent

Если у вас наблюдаются проблемы со скриншотами, переходом по ссылками, скачиванием торрентов - проблемы в блокировщике рекламы AdBlock. #хорошегоДня!


Статистика раздачи
Размер:  296 MB   |    Зарегистрирован:  5 лет 8 месяцев   |    .torrent скачан:  33 раза   |   
Раздают:  1  
   
Загрузка...
 
Автор Сообщение

Umakiro

avatar Umakiro


Eliane Elias - Light My Fire

Жанр: Vocal Jazz, Latin Jazz, Piano Jazz
Страна-производитель диска: USA
Год издания диска: 2011
Издатель (лейбл): Concord Music Group
Номер по каталогу: CPI-32761-02
Страна: Brazil
Аудиокодек: APE (*.ape)
Тип рипа: image+.cue
Битрейт аудио: lossless
Продолжительность: 00:54:34
Источник (релизер): Диск из личной коллекции
Наличие сканов в содержимом раздачи: да
Треклист:

1. Rosa Morena (4'37)
2. Stay Cool (4'02)
3. Aquele Abraco (5'18)
4. Light My Fire (5'38)
5. Isto Aqui O Que E (Silver Sandal) (4'00)
6. My Cherie Amour (4'30)
7. Toda Menina Baiana (4'22)
8. Bananeira (3'27)
9. Made In Moonlight (5'12)
10. Turn To Me (Samba Maracatu) (3'39)
11. Take Five (5'12)
12. What About The Heart (Bate Bate) (4'46)
 
Отчёт EAC об извлечении, выполненном 10. августа 2011, 19:15

Eliane Elias / Light My Fire

Дисковод: HL-DT-STDVDRAM GH20LS10 Adapter: 3 ID: 1

Режим чтения : ДостоверностьИспользование точного потока : ДаОтключение кэша аудио : ДаИспользование указателей C2 : Нет

Коррекция смещения при чтении : 667Способность читать области Lead-in и Lead-out : НетЗаполнение пропущенных сэмплов тишиной : ДаУдаление блоков с тишиной в начале и конце : НетПри вычислениях CRC использовались нулевые сэмплы : ДаИнтерфейс : Встроенный Win32-интерфейс для Win NT/2000

Выходной формат : Внутренние WAV-операцииФормат сэмплов : 44.100 Гц; 16 бит; стерео

TOC извлечённого CD

Трек | Старт | Длительность | Начальный сектор | Конечный сектор --------------------------------------------------------------------- 1 | 0:00.00 | 4:18.07 | 0 | 19356 2 | 4:18.07 | 4:03.29 | 19357 | 37610 3 | 8:21.36 | 5:18.68 | 37611 | 61528 4 | 13:40.29 | 5:38.45 | 61529 | 86923 5 | 19:18.74 | 4:00.10 | 86924 | 104933 6 | 23:19.09 | 4:31.30 | 104934 | 125288 7 | 27:50.39 | 4:23.72 | 125289 | 145085 8 | 32:14.36 | 3:28.13 | 145086 | 160698 9 | 35:42.49 | 5:12.21 | 160699 | 184119 10 | 40:54.70 | 3:39.53 | 184120 | 200597 11 | 44:34.48 | 5:13.22 | 200598 | 224094 12 | 49:47.70 | 4:46.34 | 224095 | 245578

Характеристики диапазона извлечения и сообщения об ошибках

Выбранный диапазон

Имя файла D:\Lossless\Eliane Elias - Light My Fire-2011\e.wav

Пиковый уровень 100.0 % Качество диапазона 100.0 % CRC теста 7F8704E3 CRC копии 7F8704E3 Копирование... OK

Ошибок не произошло

AccurateRip: сводка

Трек 1 точность не определена (достоверность 1) [63BDA23F], AccurateRip вернул [1644C676]Трек 2 точность не определена (достоверность 1) [8B8E29E6], AccurateRip вернул [B016A782]Трек 3 точность не определена (достоверность 1) [A8A236B0], AccurateRip вернул [BE29F357]Трек 4 точность не определена (достоверность 1) [5AA8F226], AccurateRip вернул [F06C62DA]Трек 5 точность не определена (достоверность 1) [18E2ABDB], AccurateRip вернул [5D7FE25B]Трек 6 точность не определена (достоверность 1) [57259616], AccurateRip вернул [1E111513]Трек 7 точность не определена (достоверность 1) [670930E3], AccurateRip вернул [24A7A57D]Трек 8 точность не определена (достоверность 1) [CD6E4C32], AccurateRip вернул [7BB49FEA]Трек 9 точность не определена (достоверность 1) [8296D977], AccurateRip вернул [131847C7]Трек 10 точность не определена (достоверность 1) [412B50A3], AccurateRip вернул [0BD265E0]Трек 11 точность не определена (достоверность 1) [9C00C477], AccurateRip вернул [B8AC58F8]Трек 12 точность не определена (достоверность 1) [61D52179], AccurateRip вернул [1F8C4BD3]

Ни один трек не прошёл проверки на точностьВ вашей базе может быть иной вариант штамповки диска

Конец отчёта
 
REM GENRE jazzREM DATE 2011REM DISCID 9C0CCA0CREM COMMENT "ExactAudioCopy v0.99pb4"PERFORMER "Eliane Elias"TITLE "Light My Fire"FILE "e.wav" WAVE TRACK 01 AUDIO TITLE "Rosa Morena" PERFORMER "Eliane Elias" INDEX 01 00:00:00 TRACK 02 AUDIO TITLE "Stay Cool" PERFORMER "Eliane Elias" INDEX 01 04:18:07 TRACK 03 AUDIO TITLE "Aquele Abraco" PERFORMER "Eliane Elias" INDEX 01 08:21:36 TRACK 04 AUDIO TITLE "Light My Fire" PERFORMER "Eliane Elias" INDEX 01 13:40:29 TRACK 05 AUDIO TITLE "Isto Aqui O Que E (Silver Sandal)" PERFORMER "Eliane Elias" INDEX 01 19:18:74 TRACK 06 AUDIO TITLE "My Cherie Amour" PERFORMER "Eliane Elias" INDEX 01 23:19:09 TRACK 07 AUDIO TITLE "Toda Menina Baiana" PERFORMER "Eliane Elias" INDEX 01 27:50:39 TRACK 08 AUDIO TITLE "Bananeira" PERFORMER "Eliane Elias" INDEX 01 32:14:36 TRACK 09 AUDIO TITLE "Made In Moonlight" PERFORMER "Eliane Elias" INDEX 01 35:42:49 TRACK 10 AUDIO TITLE "Turn To Me (Samba Maracatu)" PERFORMER "Eliane Elias" INDEX 01 40:54:70 TRACK 11 AUDIO TITLE "Take Five" PERFORMER "Eliane Elias" INDEX 01 44:34:48 TRACK 12 AUDIO TITLE "What About The Heart (Bate Bate)" PERFORMER "Eliane Elias" INDEX 01 49:47:70
Eliane Elias - vocal, piano
Marc Johnson - bass
Oscar Castro-Neves - acoustic guitar
Gilberto Gil - vocal, acoustic guitar
Ross Traut - electric guitar
Romero Lubambo - acoustic guitar
Paulo Braga - drums
Rafael Barata - drums, percussion
Marivaldo dos Santos - percussion
Pedrito Martinez - congas
Amanda Brecker - vocals
Randy Brecker - flugelhorn, trumpet
Lawrence Feldman - flute


Трекер:  [ 28-Янв-2012 15:18 ]

  

Скачать .torrent

Размер .torrent файла 12 KB


Размер: 296 MB
Хэш (hash) релиза: 060ba4dad3f90971c242621661388c164ff7e52e

Еще никто не оставлял запись к записи скачать торрент Eliane Elias - Light My Fire - 2011, APE . Будь первым!

!Обратная связь