Скачать через торрент музыку Laurence Hobgood, Charlie Haden, Kurt Elling - When The Heart Dances - 2008, APE бесплатно без регистрации torrent

Если у вас наблюдаются проблемы со скриншотами, переходом по ссылками, скачиванием торрентов - проблемы в блокировщике рекламы AdBlock. #хорошегоДня!


Статистика раздачи
Размер:  254 MB   |    Зарегистрирован:  5 лет 8 месяцев   |    .torrent скачан:  19 раз   |   
Раздают:  1  
   
Загрузка...
 
Автор Сообщение

Umakiro

avatar Umakiro


Laurence Hobgood, Charlie Haden, Kurt Elling - When The Heart Dances - 2008

Жанр: Contemporary jazz
Страна-производитель диска: UK
Год издания диска: 2008
Издатель (лейбл): Naim Audio Ltd.
Номер по каталогу: NAIMCD112
Страна: USA
Аудиокодек: APE (*.ape)
Тип рипа: image+.cue
Битрейт аудио: lossless
Продолжительность: 01:04:00
Источник (релизер): диск из личной коллекции
Наличие сканов в содержимом раздачи: да
Треклист:

1. Que sera sera (6'41)
2. When The Heart Dances (4'49)
3. First Song (6'11)
4. Sanctuary (7'34)
5. Chickoree (5'17)
6. Sairway To The Stars (5'26)
7. New Orleans (5'39)
8. Why Did I Choose You (6'44)
9. Leatherwood (5'53)
10. Daydream (4'45)
11. The Cost Of Living (5'34)

Laurence Hobgood - piano,
Charlie Haden - double-bass
Kurt Elling - vocals (tr 3,6,10)
 
Exact Audio Copy V0.99 prebeta 4 from 23. January 2008

Отчёт EAC об извлечении, выполненном 4. января 2012, 18:52

Laurence Hobgood / WhenThe Heart Dances

Дисковод: HL-DT-STDVDRAM GH20LS10 Adapter: 3 ID: 1

Режим чтения : ДостоверностьИспользование точного потока : ДаОтключение кэша аудио : ДаИспользование указателей C2 : Нет

Коррекция смещения при чтении : 667Способность читать области Lead-in и Lead-out : НетЗаполнение пропущенных сэмплов тишиной : ДаУдаление блоков с тишиной в начале и конце : НетПри вычислениях CRC использовались нулевые сэмплы : ДаИнтерфейс : Встроенный Win32-интерфейс для Win NT/2000

Выходной формат : Внутренние WAV-операцииФормат сэмплов : 44.100 Гц; 16 бит; стерео

TOC извлечённого CD

Трек | Старт | Длительность | Начальный сектор | Конечный сектор --------------------------------------------------------------------- 1 | 0:00.00 | 6:41.10 | 0 | 30084 2 | 6:41.10 | 4:49.24 | 30085 | 51783 3 | 11:30.34 | 6:11.38 | 51784 | 79646 4 | 17:41.72 | 7:34.19 | 79647 | 113715 5 | 25:16.16 | 5:17.62 | 113716 | 137552 6 | 30:34.03 | 5:26.46 | 137553 | 162048 7 | 36:00.49 | 5:39.52 | 162049 | 187525 8 | 41:40.26 | 6:44.06 | 187526 | 217831 9 | 48:24.32 | 5:52.57 | 217832 | 244288 10 | 54:17.14 | 4:45.07 | 244289 | 265670 11 | 59:02.21 | 5:33.53 | 265671 | 290698

Характеристики диапазона извлечения и сообщения об ошибках

Выбранный диапазон

Имя файла D:\Lossless\Laurence Hobgood- When The Heart Dances - 2008\Laurence Hobgood - WhenThe Heart Dances.wav

Пиковый уровень 97.4 % Качество диапазона 100.0 % CRC теста 88BA6AAA CRC копии 88BA6AAA Копирование... OK

Ошибок не произошло

AccurateRip: сводка

Трек 1 точное извлечение (доверие 13) [D87EC913]Трек 2 точное извлечение (доверие 13) [6B82EC99]Трек 3 точное извлечение (доверие 13) [D20255DE]Трек 4 точное извлечение (доверие 13) [E4656B19]Трек 5 точное извлечение (доверие 13) [C4DA6DD2]Трек 6 точное извлечение (доверие 13) [7240AAF2]Трек 7 точное извлечение (доверие 13) [B3F3EE1E]Трек 8 точное извлечение (доверие 13) [39658C5E]Трек 9 точное извлечение (доверие 13) [A4737AE6]Трек 10 точное извлечение (доверие 13) [87D73AEE]Трек 11 точное извлечение (доверие 13) [F455C1DA]

Все треки извлечены точно

Конец отчёта
 
REM GENRE JazzREM DATE 2008REM DISCID 8D0F230BREM COMMENT "ExactAudioCopy v0.99pb4"PERFORMER "Laurence Hobgood"TITLE "WhenThe Heart Dances"FILE "Laurence Hobgood - WhenThe Heart Dances.wav" WAVE TRACK 01 AUDIO TITLE "Que sera sera" PERFORMER "Laurence Hobgood" INDEX 01 00:00:00 TRACK 02 AUDIO TITLE "When The Heart Dances" PERFORMER "Laurence Hobgood" INDEX 01 06:41:10 TRACK 03 AUDIO TITLE "First Song" PERFORMER "Laurence Hobgood" INDEX 01 11:30:34 TRACK 04 AUDIO TITLE "Sanctuary" PERFORMER "Laurence Hobgood" INDEX 01 17:41:72 TRACK 05 AUDIO TITLE "Chickoree" PERFORMER "Laurence Hobgood" INDEX 01 25:16:16 TRACK 06 AUDIO TITLE "Sairway To The Stars" PERFORMER "Laurence Hobgood" INDEX 01 30:34:03 TRACK 07 AUDIO TITLE "New Orleans" PERFORMER "Laurence Hobgood" INDEX 01 36:00:49 TRACK 08 AUDIO TITLE "Why Did I Choose You" PERFORMER "Laurence Hobgood" INDEX 01 41:40:26 TRACK 09 AUDIO TITLE "Leatherwood" PERFORMER "Laurence Hobgood" INDEX 01 48:24:32 TRACK 10 AUDIO TITLE "Daydream" PERFORMER "Laurence Hobgood" INDEX 01 54:17:14 TRACK 11 AUDIO TITLE "The Cost Of Living" PERFORMER "Laurence Hobgood" INDEX 01 59:02:21


Трекер:  [ 28-Янв-2012 15:17 ]

  

Скачать .torrent

Размер .torrent файла 21 KB


Размер: 254 MB
Хэш (hash) релиза: 59fe6132df6b7753f1e1573bbce16d73dc0eff02

Еще никто не оставлял запись к записи скачать торрент Laurence Hobgood, Charlie Haden, Kurt Elling - When The Heart Dances - 2008, APE . Будь первым!

!Обратная связь