Скачать через торрент музыку Laurence Hobgood Trio - Crazy World - 2005 бесплатно без регистрации torrent

Если у вас наблюдаются проблемы со скриншотами, переходом по ссылками, скачиванием торрентов - проблемы в блокировщике рекламы AdBlock. #хорошегоДня!


Статистика раздачи
Размер:  379 MB   |    Зарегистрирован:  5 лет 8 месяцев   |    .torrent скачан:  28 раз   |   
Раздают:  1  
   
Загрузка...
 
Автор Сообщение

Umakiro

avatar Umakiro


Laurence Hobgood Trio - Crazy World

Жанр: Contemporary jazz
Страна-производитель диска: England
Год издания диска: 2005
Издатель (лейбл): Naim Audio Ltd.
Номер по каталогу: NAIMCD084
Страна: USA
Аудиокодек: APE (*.ape)
Тип рипа: image+.cue
Битрейт аудио: lossless
Продолжительность: 01:06:00
Источник (релизер): Диск из личной коллекции
Наличие сканов в содержимом раздачи: да
Треклист:

1. Revival
2. Prayer For The Enemy
3. When In Rome
4. March To Epiphany
5. Trinity
6. More Than You Know
7. The Dreaded Symphony
8. Crazy World
9. Endless Stars
10. Windowman


Laurence Hobgood - piano
Rob Amster - Double bass
Frank Parker - Drums
Kurt Elling - vocals on track 6 and 9
 
Exact Audio Copy V0.99 prebeta 4 from 23. January 2008

Отчёт EAC об извлечении, выполненном 10. января 2012, 18:53

Laurence Hobgood Trio / Crazy World

Дисковод: HL-DT-STDVDRAM GH20LS10 Adapter: 3 ID: 1

Режим чтения : ДостоверностьИспользование точного потока : ДаОтключение кэша аудио : ДаИспользование указателей C2 : Нет

Коррекция смещения при чтении : 667Способность читать области Lead-in и Lead-out : НетЗаполнение пропущенных сэмплов тишиной : ДаУдаление блоков с тишиной в начале и конце : НетПри вычислениях CRC использовались нулевые сэмплы : ДаИнтерфейс : Встроенный Win32-интерфейс для Win NT/2000

Выходной формат : Внутренние WAV-операцииФормат сэмплов : 44.100 Гц; 16 бит; стерео

TOC извлечённого CD

Трек | Старт | Длительность | Начальный сектор | Конечный сектор --------------------------------------------------------------------- 1 | 0:00.00 | 5:12.33 | 0 | 23432 2 | 5:12.33 | 8:07.52 | 23433 | 60009 3 | 13:20.10 | 4:21.06 | 60010 | 79590 4 | 17:41.16 | 7:01.44 | 79591 | 111209 5 | 24:42.60 | 6:32.01 | 111210 | 140610 6 | 31:14.61 | 6:03.65 | 140611 | 167900 7 | 37:18.51 | 4:20.18 | 167901 | 187418 8 | 41:38.69 | 5:58.56 | 187419 | 214324 9 | 47:37.50 | 4:58.03 | 214325 | 236677 10 | 52:35.53 | 14:19.42 | 236678 | 301144

Характеристики диапазона извлечения и сообщения об ошибках

Выбранный диапазон

Имя файла D:\Lossless\Laurence Hobgood Trio - Crazy World- 2005\Laurence Hobgood Trio - Crazy World.wav

Пиковый уровень 99.9 % Качество диапазона 100.0 % CRC теста F6C967CD CRC копии F6C967CD Копирование... OK

Ошибок не произошло

AccurateRip: сводка

Трек 1 точное извлечение (доверие 2) [F09D054E]Трек 2 точное извлечение (доверие 2) [284CBF48]Трек 3 точное извлечение (доверие 2) [20143C25]Трек 4 точное извлечение (доверие 2) [7F7C11CD]Трек 5 точное извлечение (доверие 2) [44D84C91]Трек 6 точное извлечение (доверие 2) [853DF67E]Трек 7 точное извлечение (доверие 2) [24591BD6]Трек 8 точное извлечение (доверие 2) [5B38BAC7]Трек 9 точное извлечение (доверие 2) [F331C369]Трек 10 точное извлечение (доверие 2) [5251AC5A]

Все треки извлечены точно

Конец отчёта
 
REM GENRE JazzREM DATE 2005REM DISCID 7C0FAF0AREM COMMENT "ExactAudioCopy v0.99pb4"PERFORMER "Laurence Hobgood Trio"TITLE "Crazy World"FILE "Laurence Hobgood Trio - Crazy World.wav" WAVE TRACK 01 AUDIO TITLE "Revival" PERFORMER "Laurence Hobgood Trio" INDEX 01 00:00:00 TRACK 02 AUDIO TITLE "Prayer For The Enemy" PERFORMER "Laurence Hobgood Trio" INDEX 01 05:12:33 TRACK 03 AUDIO TITLE "When In Rome" PERFORMER "Laurence Hobgood Trio" INDEX 01 13:20:10 TRACK 04 AUDIO TITLE "March To Epiphany" PERFORMER "Laurence Hobgood Trio" INDEX 01 17:41:16 TRACK 05 AUDIO TITLE "Trinity" PERFORMER "Laurence Hobgood Trio" INDEX 01 24:42:60 TRACK 06 AUDIO TITLE "More Than You Know (Ft Kurt Elling)" PERFORMER "Laurence Hobgood Trio" INDEX 01 31:14:61 TRACK 07 AUDIO TITLE "The Dreaded Symphony" PERFORMER "Laurence Hobgood Trio" INDEX 01 37:18:51 TRACK 08 AUDIO TITLE "Crazy World" PERFORMER "Laurence Hobgood Trio" INDEX 01 41:38:69 TRACK 09 AUDIO TITLE "Endless Stars (Ft Kurt Elling)" PERFORMER "Laurence Hobgood Trio" INDEX 01 47:37:50 TRACK 10 AUDIO TITLE "Windowman" PERFORMER "Laurence Hobgood Trio" INDEX 01 52:35:53


Трекер:  [ 28-Янв-2012 15:17 ]

  

Скачать .torrent

Размер .torrent файла 15 KB


Размер: 379 MB
Хэш (hash) релиза: 84e442d4abb5d2886829ae38082b9563a375fb6a

Еще никто не оставлял запись к записи скачать торрент Laurence Hobgood Trio - Crazy World - 2005 . Будь первым!

!Обратная связь