Скачать через торрент музыку Arturo Sandoval & WDR Big Band - Mambo Nights - 2011, APE бесплатно без регистрации torrent

Если у вас наблюдаются проблемы со скриншотами, переходом по ссылками, скачиванием торрентов - проблемы в блокировщике рекламы AdBlock. #хорошегоДня!


Статистика раздачи
Размер:  442 MB   |    Зарегистрирован:  5 лет 8 месяцев   |    .torrent скачан:  32 раза   |   
Раздают:  1  
   
Загрузка...
 
Автор Сообщение

Umakiro

avatar Umakiro


Arturo Sandoval & WDR Big Band - Mambo Nights

Жанр: Latin Jazz
Страна-производитель диска: Made in the EEC
Год издания диска: 2011
Издатель (лейбл): Connector Records
Номер по каталогу: 59886-2
Страна: Cuba
Аудиокодек: APE (*.ape)
Тип рипа: image+.cue
Битрейт аудио: lossless
Продолжительность: 01:07:00
Источник (релизер): Диск из личной коллекции
Наличие сканов в содержимом раздачи: да
Треклист:

1. Sofrito 97'46)
2. Come Candela (5'34)
3. Asi Asi (6'00)
4. Manteca (6'43)
5. A Mayra (5'18)
6. Autumn Leaves (4'56)
7. Mambo 9/34 (6'20)
8. Oye Como Va (5'19)
9. Mambo Sandoval (6'39)
10. Quiero Ir Contigo (4'42)
11. Mambo Inn (8'42)
 
Exact Audio Copy V0.99 prebeta 4 from 23. January 2008

Отчёт EAC об извлечении, выполненном 20. января 2012, 21:58

Arturo Sandoval & WDR Big Band / Mambo Nights

Дисковод: HL-DT-STDVDRAM GH20LS10 Adapter: 3 ID: 1

Режим чтения : ДостоверностьИспользование точного потока : ДаОтключение кэша аудио : ДаИспользование указателей C2 : Нет

Коррекция смещения при чтении : 667Способность читать области Lead-in и Lead-out : НетЗаполнение пропущенных сэмплов тишиной : ДаУдаление блоков с тишиной в начале и конце : НетПри вычислениях CRC использовались нулевые сэмплы : ДаИнтерфейс : Встроенный Win32-интерфейс для Win NT/2000

Выходной формат : Внутренние WAV-операцииФормат сэмплов : 44.100 Гц; 16 бит; стерео

TOC извлечённого CD

Трек | Старт | Длительность | Начальный сектор | Конечный сектор --------------------------------------------------------------------- 1 | 0:00.00 | 7:46.08 | 0 | 34957 2 | 7:46.08 | 5:33.69 | 34958 | 60001 3 | 13:20.02 | 5:59.72 | 60002 | 86998 4 | 19:19.74 | 6:43.36 | 86999 | 117259 5 | 26:03.35 | 5:18.24 | 117260 | 141133 6 | 31:21.59 | 4:56.27 | 141134 | 163360 7 | 36:18.11 | 6:20.34 | 163361 | 191894 8 | 42:38.45 | 5:18.55 | 191895 | 215799 9 | 47:57.25 | 6:38.46 | 215800 | 245695 10 | 54:35.71 | 4:41.63 | 245696 | 266833 11 | 59:17.59 | 8:42.01 | 266834 | 305984

Характеристики диапазона извлечения и сообщения об ошибках

Выбранный диапазон

Имя файла D:\Lossless\Arturo Sandoval-Mambo Nights-2011\Arturo Sandoval & WDR Big Band - Mambo Nights.wav

Пиковый уровень 98.8 % Качество диапазона 100.0 % CRC теста D5EACE92 CRC копии D5EACE92 Копирование... OK

Ошибок не произошло

AccurateRip: сводка

Трек 1 точное извлечение (доверие 2) [6725D375]Трек 2 точное извлечение (доверие 2) [FB6D1F48]Трек 3 точное извлечение (доверие 2) [189EB1D7]Трек 4 точное извлечение (доверие 2) [44DBBF58]Трек 5 точное извлечение (доверие 2) [B0D87DEA]Трек 6 точное извлечение (доверие 2) [5B1028F4]Трек 7 точное извлечение (доверие 2) [5D6D90EF]Трек 8 точное извлечение (доверие 2) [6F7A1C41]Трек 9 точное извлечение (доверие 2) [C94407DE]Трек 10 точное извлечение (доверие 2) [07F123CF]Трек 11 точное извлечение (доверие 2) [207E4B96]

Все треки извлечены точно

Конец отчёта
 
REM GENRE JazzREM DATE 2010REM DISCID A70FEF0BREM COMMENT "ExactAudioCopy v0.99pb4"PERFORMER "Arturo Sandoval & WDR Big Band"TITLE "Mambo Nights"FILE "Arturo Sandoval & WDR Big Band - Mambo Nights.wav" WAVE TRACK 01 AUDIO TITLE "Sofrito" PERFORMER "Arturo Sandoval & WDR Big Band" FLAGS DCP INDEX 01 00:00:00 TRACK 02 AUDIO TITLE "Come Candela" PERFORMER "Arturo Sandoval & WDR Big Band" FLAGS DCP INDEX 01 07:46:08 TRACK 03 AUDIO TITLE "Asi Asi" PERFORMER "Arturo Sandoval & WDR Big Band" FLAGS DCP INDEX 01 13:20:02 TRACK 04 AUDIO TITLE "Manteca" PERFORMER "Arturo Sandoval & WDR Big Band" FLAGS DCP INDEX 01 19:19:74 TRACK 05 AUDIO TITLE "A Mayra" PERFORMER "Arturo Sandoval & WDR Big Band" FLAGS DCP INDEX 01 26:03:35 TRACK 06 AUDIO TITLE "Autumn leaves" PERFORMER "Arturo Sandoval & WDR Big Band" FLAGS DCP INDEX 01 31:21:59 TRACK 07 AUDIO TITLE "Mambo 9/34" PERFORMER "Arturo Sandoval & WDR Big Band" FLAGS DCP INDEX 01 36:18:11 TRACK 08 AUDIO TITLE "Oye como va" PERFORMER "Arturo Sandoval & WDR Big Band" FLAGS DCP INDEX 01 42:38:45 TRACK 09 AUDIO TITLE "Mambo Sandoval" PERFORMER "Arturo Sandoval & WDR Big Band" FLAGS DCP INDEX 01 47:57:25 TRACK 10 AUDIO TITLE "Quiero ir contigo" PERFORMER "Arturo Sandoval & WDR Big Band" FLAGS DCP INDEX 01 54:35:71 TRACK 11 AUDIO TITLE "Mambo Inn" PERFORMER "Arturo Sandoval & WDR Big Band" FLAGS DCP INDEX 01 59:17:59


Трекер:  [ 28-Янв-2012 15:16 ]

  

Скачать .torrent

Размер .torrent файла 18 KB


Размер: 442 MB
Хэш (hash) релиза: e0b60bcf64e4dadd82fe9b078ac09f49310f2ca5

Еще никто не оставлял запись к записи скачать торрент Arturo Sandoval & WDR Big Band - Mambo Nights - 2011, APE . Будь первым!

!Обратная связь