Скачать через торрент музыку Joey DeFrancesco - 40 - 2011, APE бесплатно без регистрации torrent

Если у вас наблюдаются проблемы со скриншотами, переходом по ссылками, скачиванием торрентов - проблемы в блокировщике рекламы AdBlock. #хорошегоДня!


Статистика раздачи
Размер:  373 MB   |    Зарегистрирован:  5 лет 8 месяцев   |    .torrent скачан:  25 раз   |   
Раздают:  1  
   
Загрузка...
 
Автор Сообщение

Umakiro

avatar Umakiro


Joey DeFrancesco - 40

Жанр: Soul-Jazz/Hard Bop/Post-Bop
Страна-производитель диска: USA
Год издания диска: 2011
Издатель (лейбл): Highnote Records
Номер по каталогу: HCD 7226
Страна: USA
Аудиокодек: APE (*.ape)
Тип рипа: image+.cue
Битрейт аудио: lossless
Продолжительность: 00:59:18
Источник (релизер): Диск из личной коллеции
Наличие сканов в содержимом раздачи: да
Треклист:

1. Donny's Tune (5э06)
2. Ashley Blue (7'01)
3. Gloria (5'48)
4. 100 Ways (9'09)
5. I've Got A Woman (7'15)
6. V & G (6'20)
7. Life Is Good (6'39)
8. Bluz 'n' 3 (6'11)
9. Caruso (5'44
)

Joey DeFrancesco - Old Hammond Organ
Ramon Banda - Drums, Percussion
Rick Zunigar - Guitar
 
Exact Audio Copy V0.99 prebeta 4 from 23. January 2008

Отчёт EAC об извлечении, выполненном 20. января 2012, 21:02

Joey DeFrancesco / 40

Дисковод: HL-DT-STDVDRAM GH20LS10 Adapter: 3 ID: 1

Режим чтения : ДостоверностьИспользование точного потока : ДаОтключение кэша аудио : ДаИспользование указателей C2 : Нет

Коррекция смещения при чтении : 667Способность читать области Lead-in и Lead-out : НетЗаполнение пропущенных сэмплов тишиной : ДаУдаление блоков с тишиной в начале и конце : НетПри вычислениях CRC использовались нулевые сэмплы : ДаИнтерфейс : Встроенный Win32-интерфейс для Win NT/2000

Выходной формат : Внутренние WAV-операцииФормат сэмплов : 44.100 Гц; 16 бит; стерео

TOC извлечённого CD

Трек | Старт | Длительность | Начальный сектор | Конечный сектор --------------------------------------------------------------------- 1 | 0:00.00 | 5:06.39 | 0 | 22988 2 | 5:06.39 | 7:01.10 | 22989 | 54573 3 | 12:07.49 | 5:48.16 | 54574 | 80689 4 | 17:55.65 | 9:09.39 | 80690 | 121903 5 | 27:05.29 | 7:15.65 | 121904 | 154593 6 | 34:21.19 | 6:21.63 | 154594 | 183231 7 | 40:43.07 | 6:39.46 | 183232 | 213202 8 | 47:22.53 | 6:12.02 | 213203 | 241104 9 | 53:34.55 | 5:43.52 | 241105 | 266881

Характеристики диапазона извлечения и сообщения об ошибках

Выбранный диапазон

Имя файла D:\Lossless\Joey DeFrancesco -40-2011\Joey DeFrancesco - 40.wav

Пиковый уровень 100.0 % Качество диапазона 99.9 % CRC теста ADE6410B CRC копии ADE6410B Копирование... OK

Ошибок не произошло

AccurateRip: сводка

Трек 1 нет в базе данныхТрек 2 нет в базе данныхТрек 3 нет в базе данныхТрек 4 нет в базе данныхТрек 5 нет в базе данныхТрек 6 нет в базе данныхТрек 7 нет в базе данныхТрек 8 нет в базе данныхТрек 9 нет в базе данных

Ни одного трека нет в базе AccurateRip

Конец отчёта
 
REM GENRE HighNoteREM DATE 2011REM DISCID 760DE609REM COMMENT "ExactAudioCopy v0.99pb4"PERFORMER "Joey DeFrancesco"TITLE "40"FILE "Joey DeFrancesco - 40.wav" WAVE TRACK 01 AUDIO TITLE "Donny's Tune" PERFORMER "Joey DeFrancesco" INDEX 01 00:00:00 TRACK 02 AUDIO TITLE "Ashley Blue" PERFORMER "Joey DeFrancesco" INDEX 01 05:06:39 TRACK 03 AUDIO TITLE "Gloria" PERFORMER "Joey DeFrancesco" INDEX 01 12:07:49 TRACK 04 AUDIO TITLE "100 Ways" PERFORMER "Joey DeFrancesco" INDEX 01 17:55:65 TRACK 05 AUDIO TITLE "I Got a Woman" PERFORMER "Joey DeFrancesco" INDEX 01 27:05:29 TRACK 06 AUDIO TITLE "V & G" PERFORMER "Joey DeFrancesco" INDEX 01 34:21:19 TRACK 07 AUDIO TITLE "Life is God" PERFORMER "Joey DeFrancesco" INDEX 01 40:43:07 TRACK 08 AUDIO TITLE "Bluz 'n' 3" PERFORMER "Joey DeFrancesco" INDEX 01 47:22:53 TRACK 09 AUDIO TITLE "Caruso" PERFORMER "Joey DeFrancesco" INDEX 01 53:34:55


Трекер:  [ 28-Янв-2012 15:16 ]

  

Скачать .torrent

Размер .torrent файла 15 KB


Размер: 373 MB
Хэш (hash) релиза: 86f26ced5eb2f86cf58a12be6e33461d6a221ac6

Еще никто не оставлял запись к записи скачать торрент Joey DeFrancesco - 40 - 2011, APE . Будь первым!

!Обратная связь