Скачать через торрент музыку Dusko Goykovich - After Hours - 1971, APE бесплатно без регистрации torrent

Если у вас наблюдаются проблемы со скриншотами, переходом по ссылками, скачиванием торрентов - проблемы в блокировщике рекламы AdBlock. #хорошегоДня!


Статистика раздачи
Размер:  223 MB   |    Зарегистрирован:  5 лет 8 месяцев   |    .torrent скачан:  37 раз   |   
Раздают:  1  
   
Загрузка...
 
Автор Сообщение

Umakiro

avatar Umakiro


Dusko Goykovich - After Hours

Жанр: Jazz/Hard Bop
Год выпуска диска: 1971
Производитель диска: Enja Records, Austria
Аудио кодек: APE
Тип рипа: image+.cue
Битрейт аудио: lossless
Продолжительность: 00:42:20
Трэклист:

1. Last Minute Blues (Slide Hampton)
2. A Child Is Born (Thad Jones)
3. Old Fisherman's Daughter (Dusko Goykovich)
4. Remember Those Days (Dusko Goykovich)
5. I Love You (Cole Porter)
6. Ten To Two Blues (Dusko Goykovich)

Personnel:
Dusko Goykovich - trumpet
Tete Montoliu - piano
Rob Langereis - bass
Joe Nay - drums

Доп. информация;
Exact Audio Copy V0.99 prebeta 4 from 23. January 2008

Отчёт EAC об извлечении, выполненном 28. июля 2009, 20:46

Dusko Goykovich / After Hours

Дисковод: PLEXTOR DVDR PX-800A Adapter: 0 ID: 0

Режим чтения : Достоверность
Использование точного потока : Да
Отключение кэша аудио : Да
Использование указателей C2 : Нет

Коррекция смещения при чтении : 48
Способность читать области Lead-in и Lead-out : Нет
Заполнение пропущенных сэмплов тишиной : Да
Удаление блоков с тишиной в начале и конце : Нет
При вычислениях CRC использовались нулевые сэмплы : Да
Интерфейс : Установленный внешний ASPI-интерфейс

Выходной формат : Внутренние WAV-операции
Формат сэмплов : 44.100 Гц; 16 бит; стерео

TOC извлечённого CD

Трек | Старт | Длительность | Начальный сектор | Конечный сектор
---------------------------------------------------------------------
1 | 0:00.00 | 8:26.00 | 0 | 37949
2 | 8:26.00 | 3:43.00 | 37950 | 54674
3 | 12:09.00 | 8:41.00 | 54675 | 93749
4 | 20:50.00 | 5:17.00 | 93750 | 117524
5 | 26:07.00 | 9:09.00 | 117525 | 158699
6 | 35:16.00 | 7:04.37 | 158700 | 190536

Характеристики диапазона извлечения и сообщения об ошибках

Выбранный диапазон

Имя файла D:\Lossless\Dusko Goykovich - After Hours\Dusko Goykovich - After Hours.wav

Пиковый уровень 100.0 %
Качество диапазона 100.0 %
CRC копии AD8FC138
Копирование... OK

Ошибок не произошло

Конец отчёта
Рип с фирменного диска

Трекер:  [ 28-Янв-2012 15:15 ]

  

Скачать .torrent

Размер .torrent файла 18 KB


Размер: 223 MB
Хэш (hash) релиза: 55e8e4d7c71cdd71f30af9a7641e220b39a543ca

Еще никто не оставлял запись к записи скачать торрент Dusko Goykovich - After Hours - 1971, APE . Будь первым!

!Обратная связь