Скачать через торрент музыку Dusko Goykovich - Samba Do Mar - 2003, APE бесплатно без регистрации torrent

Если у вас наблюдаются проблемы со скриншотами, переходом по ссылками, скачиванием торрентов - проблемы в блокировщике рекламы AdBlock. #хорошегоДня!


Статистика раздачи
Размер:  322 MB   |    Зарегистрирован:  5 лет 8 месяцев   |    .torrent скачан:  31 раз   |   
Раздают:  1  
   
Загрузка...
 
Автор Сообщение

Umakiro

avatar Umakiro


Dusko Goykovich - Samba Do Mar

Жанр: Jazz/Hard Bop
Год выпуска диска: 2003
Производитель диска: Enja Records, Germany
Аудио кодек: APE
Тип рипа: image+.cue
Битрейт аудио: lossless
Продолжительность: 01:00:00
Трэклист:

1. Samba Do Mar
2. Jim's Ballad
3. Chega De Saudade (No more Blues)
4. Insensatez (How Insensitive)
5. Bachianas Brasileiras No.5
6. The Fish
7. Quo Vadis
8. Love And Deception
9. Danca Comigo
10. Sunset

Personnel:
Dusko Goykovich - trumpet, fluegelhorn
Ferenc Snetberger - guitar
Martin Gjakonovski - bass
Jarrod Cagwin - drums

Доп. информация.
Exact Audio Copy V0.99 prebeta 4 from 23. January 2008

Отчёт EAC об извлечении, выполненном 26. июня 2009, 23:27

Dusko Goykovich / Samba Do Mar

Дисковод: PLEXTOR DVDR PX-800A Adapter: 0 ID: 0

Режим чтения : Достоверность
Использование точного потока : Да
Отключение кэша аудио : Да
Использование указателей C2 : Нет

Коррекция смещения при чтении : 48
Способность читать области Lead-in и Lead-out : Нет
Заполнение пропущенных сэмплов тишиной : Да
Удаление блоков с тишиной в начале и конце : Нет
При вычислениях CRC использовались нулевые сэмплы : Да
Интерфейс : Установленный внешний ASPI-интерфейс

Выходной формат : Внутренние WAV-операции
Формат сэмплов : 44.100 Гц; 16 бит; стерео

TOC извлечённого CD

Трек | Старт | Длительность | Начальный сектор | Конечный сектор
---------------------------------------------------------------------
1 | 0:00.00 | 6:40.29 | 0 | 30028
2 | 6:40.29 | 5:42.44 | 30029 | 55722
3 | 12:22.73 | 6:07.10 | 55723 | 83257
4 | 18:30.08 | 8:03.70 | 83258 | 119552
5 | 26:34.03 | 6:03.06 | 119553 | 146783
6 | 32:37.09 | 3:50.17 | 146784 | 164050
7 | 36:27.26 | 6:39.58 | 164051 | 194033
8 | 43:07.09 | 5:08.44 | 194034 | 217177
9 | 48:15.53 | 5:35.62 | 217178 | 242364
10 | 53:51.40 | 6:42.38 | 242365 | 272552

Характеристики диапазона извлечения и сообщения об ошибках

Выбранный диапазон

Имя файла D:\Lossless\Dusko Goykovich - Samba Do Mar\Dusko Goykovich - Samba Do Mar.wav

Пиковый уровень 98.0 %
Качество диапазона 99.9 %
CRC копии E87974FA
Копирование... OK

Ошибок не произошло

Конец отчёта
Рип с фирменного диска

Трекер:  [ 28-Янв-2012 15:15 ]

  

Скачать .torrent

Размер .torrent файла 13 KB


Размер: 322 MB
Хэш (hash) релиза: dcb03ffd2cd80019d0146946d5e9c7f33a7cbee2

Еще никто не оставлял запись к записи скачать торрент Dusko Goykovich - Samba Do Mar - 2003, APE . Будь первым!

!Обратная связь