Скачать через торрент музыку Thad Jones - After Hours - 1957, FLAC бесплатно без регистрации torrent

Если у вас наблюдаются проблемы со скриншотами, переходом по ссылками, скачиванием торрентов - проблемы в блокировщике рекламы AdBlock. #хорошегоДня!


Статистика раздачи
Размер:  213 MB   |    Зарегистрирован:  5 лет 8 месяцев   |    .torrent скачан:  39 раз   |   
Раздают:  1  
   
Загрузка...
 
Автор Сообщение

Umakiro

avatar Umakiro


Thad Jones - After Hours

Жанр: Hard Bop
Год выпуска диска: 1957
Производитель диска: USA
Аудио кодек: FLAC
Тип рипа: image+.cue
Битрейт аудио: lossless
Продолжительность: 41:30
Лейбл: Prestige
Источник: NoNaMe

Трэклист:
1. Steamin'
2. Blue Jelly
3. Count One
4. Empty Street

Музыканты:
Thad Jones - trumpet
Frank Wess - flute, tenor sax
Kenny Burrell - guitar
Mal Waldron - piano
Paul Chambers - bass
Art Taylor - drums
 
Exact Audio Copy V0.99 prebeta 3 from 28. July 2007

EAC extraction logfile from 14. August 2009, 21:47

Thad Jones - Kenny Burrell - Frank Wess / After Hours

Used drive : HL-DT-STDVD-RAM GSA-H55N Adapter: 0 ID: 0

Read mode : SecureUtilize accurate stream : YesDefeat audio cache : YesMake use of C2 pointers : No

Read offset correction : 102Overread into Lead-In and Lead-Out : NoFill up missing offset samples with silence : YesDelete leading and trailing silent blocks : NoNull samples used in CRC calculations : NoUsed interface : Installed external ASPI interface

Used output format : User Defined EncoderSelected bitrate : 768 kBit/sQuality : HighAdd ID3 tag : NoCommand line compressor : C:\Program Files\Exact Audio Copy\FLAC\FLAC.EXEAdditional command line options : -6 -V -T "ARTIST=%a" -T "TITLE=%t" -T "ALBUM=%g" -T "DATE=%y" -T "TRACKNUMBER=%n" -T "GENRE=%m" -T "COMMENT=%e" %s -o %d

TOC of the extracted CD

Track | Start | Length | Start sector | End sector --------------------------------------------------------- 1 | 0:00.00 | 9:28.62 | 0 | 42661 2 | 9:28.62 | 11:26.35 | 42662 | 94146 3 | 20:55.22 | 7:56.25 | 94147 | 129871 4 | 28:51.47 | 12:38.70 | 129872 | 186791

Range status and errors

Selected range

Filename C:\Users\Миша\Documents\Thad Jones - After Hours\Thad Jones - Kenny Burrell - Frank Wess - After Hours.wav

Peak level 100.0 % Range quality 99.9 % Copy CRC 92AF12CF Copy OK

No errors occurred

AccurateRip summary

Track 1 cannot be verified as accurate (confidence 1) [A5568743], AccurateRip returned [CAC46E77]Track 2 cannot be verified as accurate (confidence 1) [C8B3657B], AccurateRip returned [8C8F937C]Track 3 cannot be verified as accurate (confidence 1) [A5BB52BB], AccurateRip returned [03F9BD2F]Track 4 cannot be verified as accurate (confidence 1) [494B1949], AccurateRip returned [481C2CE8]

No tracks could be verified as accurateYou may have a different pressing from the one(s) in the database

End of status report
 
AUDIOCHECKER v1.2 - by Dester - opdester@freemail.hu~~~~~~~~~~~~~~~~~

1 -===- E:\Up-Down\Thad Jones - After Hours\Thad Jones - Kenny Burrell - Frank Wess - After Hours.flac Extracted successfully Conclusion: This track looks like CDDA with probability 100%


Трекер:  [ 28-Янв-2012 15:14 ]

  

Скачать .torrent

Размер .torrent файла 17 KB


Размер: 213 MB
Хэш (hash) релиза: ad45c23e9aab4ee126e493b127f34c0bdc035bdb

Еще никто не оставлял запись к записи скачать торрент Thad Jones - After Hours - 1957, FLAC . Будь первым!

!Обратная связь