Скачать через торрент музыку Hank Mobley - A Slice Of The Top {Blue Note} - 1966, FLAC бесплатно без регистрации torrent

Если у вас наблюдаются проблемы со скриншотами, переходом по ссылками, скачиванием торрентов - проблемы в блокировщике рекламы AdBlock. #хорошегоДня!


Статистика раздачи
Размер:  248 MB   |    Зарегистрирован:  5 лет 8 месяцев   |    .torrent скачан:  28 раз   |   
Раздают:  1  
   
Загрузка...
 
Автор Сообщение

Umakiro

avatar Umakiro


Hank Mobley - A Slice Of The Top

Жанр: Hard Bop
Год выпуска диска: 1966
Производитель диска: USA
Аудио кодек: FLAC
Тип рипа: image+.cue
Битрейт аудио: lossless
Продолжительность: 38:41
Лейбл: Blue Note
Источник: NoNaMe, mishka1981

Трэклист:
1 Hank's Other Bag
2 There's a Lull in My Life
3 Cute 'N Pretty
4 Touch of Blue
5 Slice of the Top

Музыканты:
Hank Mobley, tenor sax
James Spaulding, alto sax
Lee Morgan, trumpet
Kiane Zawadi, euphonium
Howard Johnson, tuba
McCoy Tyner, piano
Bob Cranshaw, bass
Billy Higgins, drums

Originally recorded on March 18, 1966 at the Van Gelder Studio, Englewood Cliffs, New Jersey
 
Exact Audio Copy V0.99 prebeta 3 from 28. July 2007

EAC extraction logfile from 4. June 2010, 13:28

Hank Mobley / A Slice Of The Top

Used drive : HL-DT-STDVD-RAM GSA-H55N Adapter: 0 ID: 0

Read mode : SecureUtilize accurate stream : YesDefeat audio cache : YesMake use of C2 pointers : No

Read offset correction : 102Overread into Lead-In and Lead-Out : NoFill up missing offset samples with silence : YesDelete leading and trailing silent blocks : NoNull samples used in CRC calculations : NoUsed interface : Installed external ASPI interface

Used output format : User Defined EncoderSelected bitrate : 768 kBit/sQuality : HighAdd ID3 tag : NoCommand line compressor : C:\Program Files\Exact Audio Copy\FLAC\FLAC.EXEAdditional command line options : -6 -V -T "ARTIST=%a" -T "TITLE=%t" -T "ALBUM=%g" -T "DATE=%y" -T "TRACKNUMBER=%n" -T "GENRE=%m" -T "COMMENT=%e" %s -o %d

TOC of the extracted CD

Track | Start | Length | Start sector | End sector --------------------------------------------------------- 1 | 0:00.00 | 7:12.62 | 0 | 32461 2 | 7:12.62 | 5:25.05 | 32462 | 56841 3 | 12:37.67 | 7:36.45 | 56842 | 91086 4 | 20:14.37 | 8:46.53 | 91087 | 130589 5 | 29:01.15 | 9:40.32 | 130590 | 174121

Range status and errors

Selected range

Filename C:\Users\Миша\Documents\Hank Mobley - A Slice Of The Top\Hank Mobley - A Slice Of The Top.wav

Peak level 82.5 % Range quality 99.9 % Copy CRC 67674072 Copy OK

No errors occurred

AccurateRip summary

Track 1 accurately ripped (confidence 5) [D5D99114]Track 2 accurately ripped (confidence 5) [71C61825]Track 3 accurately ripped (confidence 5) [B8D07A35]Track 4 accurately ripped (confidence 5) [5493DC6C]Track 5 accurately ripped (confidence 4) [45907B63]

All tracks accurately ripped

End of status report


Трекер:  [ 28-Янв-2012 15:13 ]

  

Скачать .torrent

Размер .torrent файла 20 KB


Размер: 248 MB
Хэш (hash) релиза: 3c0c2266341a2a403a06d9a348c52ce69d8d9fa3

Еще никто не оставлял запись к записи скачать торрент Hank Mobley - A Slice Of The Top {Blue Note} - 1966, FLAC . Будь первым!

!Обратная связь