Скачать через торрент музыку Eddie Higgins Trio - A Lovely Way To Spend An Evening бесплатно без регистрации torrent

Если у вас наблюдаются проблемы со скриншотами, переходом по ссылками, скачиванием торрентов - проблемы в блокировщике рекламы AdBlock. #хорошегоДня!


Статистика раздачи
Размер:  376 MB   |    Зарегистрирован:  5 лет 8 месяцев   |    .torrent скачан:  21 раз   |   
Раздают:  1  
   
Загрузка...
 
Автор Сообщение

Umakiro

avatar Umakiro


Eddie Higgins Trio – A Lovely Way To Spend An Evening (2005)

Жанр: Bop, Mainstream Jazz
Год издания диска: 2007
Издатель (лейбл): Venus Records
Аудиокодек: FLAC (*.flac)
Тип рипа: tracks+.cue
Битрейт аудио: lossless
Продолжительность: 61:34
Источник (релизер): вата
Наличие сканов в содержимом раздачи: да

Треклист:
01. I Could Write A Book (4:32)
02. Guess I'll Hang My Tears Out To Dry (6:00)
03. April In Paris (4:22)
04. Polka Dots And Moonbeams (5:41)
05. A Lovely Way To Spend An Evening (4:12)
06. Gentle Rain (4:45)
07. I Get A Kick Out Of You (5:34)
08. Serenade In Blue (5:05)
09. Why Was I Born (3:36)
10. Come Rain Or Come Shine (3:59)
11. The Way You Look Tonight (5:00)
12. Moonlight Serenade (5:09)
13. It Might As Well Be Spring (3:39)

Personnel:
Eddie Higgins - p
Jay Leonhart - b
Mark Taylor - d

Rec.: Clinton Studio, New York City, NY, June 18-21, 2005.
 
 
Exact Audio Copy V1.0 beta 3 from 29. August 2011

EAC extraction logfile from 24. November 2011, 0:24

Eddie Higgins Trio / A Lovely Way To Spend An Evening

Used drive : PLEXTOR DVDR PX-810UF Adapter: 5 ID: 0

Read mode : SecureUtilize accurate stream : YesDefeat audio cache : YesMake use of C2 pointers : No

Read offset correction : 667Overread into Lead-In and Lead-Out : NoFill up missing offset samples with silence : YesDelete leading and trailing silent blocks : NoNull samples used in CRC calculations : YesUsed interface : Native Win32 interface for Win NT & 2000Gap handling : Appended to previous track

Used output format : User Defined EncoderSelected bitrate : 128 kBit/sQuality : HighAdd ID3 tag : NoCommand line compressor : C:\Program Files\Exact Audio Copy\Flac\flac.exeAdditional command line options : -8 -V -T "ARTIST=%artist%" -T "TITLE=%title%" -T "ALBUM=%albumtitle%" -T "DATE=%year%" -T "TRACKNUMBER=%tracknr%" -T "TOTALTRACKS=%numtracks%" -T "GENRE=%genre%" -T "ALBUMARTIST=%albumartist%" -T "ALBUM ARTIST=%albumartist%" -T "COMMENT=EAC Secure Mode, Test & Copy, AccurateRip, FLAC -8" %source%

TOC of the extracted CD

Track | Start | Length | Start sector | End sector --------------------------------------------------------- 1 | 0:00.00 | 4:31.60 | 0 | 20384 2 | 4:31.60 | 6:00.15 | 20385 | 47399 3 | 10:32.00 | 4:22.00 | 47400 | 67049 4 | 14:54.00 | 5:41.00 | 67050 | 92624 5 | 20:35.00 | 4:12.00 | 92625 | 111524 6 | 24:47.00 | 4:45.00 | 111525 | 132899 7 | 29:32.00 | 5:34.00 | 132900 | 157949 8 | 35:06.00 | 5:05.01 | 157950 | 180825 9 | 40:11.01 | 3:36.00 | 180826 | 197025 10 | 43:47.01 | 3:58.74 | 197026 | 214949 11 | 47:46.00 | 5:00.01 | 214950 | 237450 12 | 52:46.01 | 5:09.00 | 237451 | 260625 13 | 57:55.01 | 3:39.16 | 260626 | 277066

Track 1

Filename F:\EAC WAV\01 - I Could Write A Book.wav

Pre-gap length 0:00:02.00

Peak level 95.7 % Extraction speed 3.3 X Track quality 99.9 % Test CRC 95E2A6F3 Copy CRC 95E2A6F3 Accurately ripped (confidence 2) [5A740798] (AR v2) Copy OK

Track 2

Filename F:\EAC WAV\02 - Guess I'll Hang My Tears Out To Dry.wav

Pre-gap length 0:00:04.30

Peak level 99.4 % Extraction speed 4.6 X Track quality 99.9 % Test CRC A35B4017 Copy CRC A35B4017 Accurately ripped (confidence 2) [9AD23401] (AR v2) Copy OK

Track 3

Filename F:\EAC WAV\03 - April In Paris.wav

Pre-gap length 0:00:04.45

Peak level 100.0 % Extraction speed 5.5 X Track quality 100.0 % Test CRC 35051230 Copy CRC 35051230 Accurately ripped (confidence 2) [F104F587] (AR v2) Copy OK

Track 4

Filename F:\EAC WAV\04 - Polka Dots And Moonbeams.wav

Pre-gap length 0:00:04.45

Peak level 95.2 % Extraction speed 6.1 X Track quality 100.0 % Test CRC 8B5FE55D Copy CRC 8B5FE55D Accurately ripped (confidence 2) [5E9DEC40] (AR v2) Copy OK

Track 5

Filename F:\EAC WAV\05 - A Lovely Way To Spend An Evening.wav

Pre-gap length 0:00:04.45

Peak level 99.1 % Extraction speed 5.2 X Track quality 99.9 % Test CRC 3234EE33 Copy CRC 3234EE33 Accurately ripped (confidence 2) [27A5B888] (AR v2) Copy OK

Track 6

Filename F:\EAC WAV\06 - Gentle Rain.wav

Pre-gap length 0:00:04.45

Peak level 98.9 % Extraction speed 6.7 X Track quality 100.0 % Test CRC 5B383B15 Copy CRC 5B383B15 Accurately ripped (confidence 2) [CD927F7F] (AR v2) Copy OK

Track 7

Filename F:\EAC WAV\07 - I Get A Kick Out Of You.wav

Pre-gap length 0:00:04.45

Peak level 100.0 % Extraction speed 6.2 X Track quality 99.9 % Test CRC 3FA33489 Copy CRC 3FA33489 Accurately ripped (confidence 2) [E323AAF9] (AR v2) Copy OK

Track 8

Filename F:\EAC WAV\08 - Serenade In Blue.wav

Pre-gap length 0:00:04.45

Peak level 99.5 % Extraction speed 7.4 X Track quality 100.0 % Test CRC C8329D91 Copy CRC C8329D91 Accurately ripped (confidence 2) [1D8FC004] (AR v2) Copy OK

Track 9

Filename F:\EAC WAV\09 - Why Was I Born.wav

Pre-gap length 0:00:04.45

Peak level 100.0 % Extraction speed 7.2 X Track quality 100.0 % Test CRC 105F6EF4 Copy CRC 105F6EF4 Accurately ripped (confidence 2) [E6E358C0] (AR v2) Copy OK

Track 10

Filename F:\EAC WAV\10 - Come Rain Or Come Shine.wav

Pre-gap length 0:00:04.45

Peak level 99.5 % Extraction speed 7.2 X Track quality 100.0 % Test CRC DA00C277 Copy CRC DA00C277 Accurately ripped (confidence 2) [3D29ACD1] (AR v2) Copy OK

Track 11

Filename F:\EAC WAV\11 - The Way You Look Tonight.wav

Pre-gap length 0:00:04.45

Peak level 100.0 % Extraction speed 8.0 X Track quality 100.0 % Test CRC C36A2D16 Copy CRC C36A2D16 Accurately ripped (confidence 2) [A2987CCD] (AR v2) Copy OK

Track 12

Filename F:\EAC WAV\12 - Moonlight Serenade.wav

Pre-gap length 0:00:04.45

Peak level 94.4 % Extraction speed 8.2 X Track quality 100.0 % Test CRC F9DCFCB3 Copy CRC F9DCFCB3 Accurately ripped (confidence 2) [688C6351] (AR v2) Copy OK

Track 13

Filename F:\EAC WAV\13 - It Might As Well Be Spring.wav

Pre-gap length 0:00:04.45

Peak level 100.0 % Extraction speed 8.4 X Track quality 100.0 % Test CRC 529A2C3A Copy CRC 529A2C3A Accurately ripped (confidence 2) [D82EE7E3] (AR v2) Copy OK

All tracks accurately ripped

No errors occurred

End of status report

==== Log checksum AD9DECD167123CE525592F867BD18800E5EFD20E86DA40E4A7DB58934D189B70 ====
 
REM GENRE JazzREM DATE 2005REM DISCID CF0E6E0DREM COMMENT "ExactAudioCopy v1.0b3"PERFORMER "Eddie Higgins Trio"TITLE "A Lovely Way To Spend An Evening"FILE "01. I Could Write A Book.flac" WAVE TRACK 01 AUDIO TITLE "I Could Write A Book" PERFORMER "Eddie Higgins Trio" INDEX 01 00:00:00 TRACK 02 AUDIO TITLE "Guess I'll Hang My Tears Out To Dry" PERFORMER "Eddie Higgins Trio" INDEX 00 04:27:30FILE "02. Guess I'll Hang My Tears Out To Dry.flac" WAVE INDEX 01 00:00:00 TRACK 03 AUDIO TITLE "April In Paris" PERFORMER "Eddie Higgins Trio" INDEX 00 05:55:45FILE "03. April In Paris.flac" WAVE INDEX 01 00:00:00 TRACK 04 AUDIO TITLE "Polka Dots And Moonbeams" PERFORMER "Eddie Higgins Trio" INDEX 00 04:17:30FILE "04. Polka Dots And Moonbeams.flac" WAVE INDEX 01 00:00:00 TRACK 05 AUDIO TITLE "A Lovely Way To Spend An Evening" PERFORMER "Eddie Higgins Trio" INDEX 00 05:36:30FILE "05. A Lovely Way To Spend An Evening.flac" WAVE INDEX 01 00:00:00 TRACK 06 AUDIO TITLE "Gentle Rain" PERFORMER "Eddie Higgins Trio" INDEX 00 04:07:30FILE "06. Gentle Rain.flac" WAVE INDEX 01 00:00:00 TRACK 07 AUDIO TITLE "I Get A Kick Out Of You" PERFORMER "Eddie Higgins Trio" INDEX 00 04:40:30FILE "07. I Get A Kick Out Of You.flac" WAVE INDEX 01 00:00:00 TRACK 08 AUDIO TITLE "Serenade In Blue" PERFORMER "Eddie Higgins Trio" INDEX 00 05:29:30FILE "08. Serenade In Blue.flac" WAVE INDEX 01 00:00:00 TRACK 09 AUDIO TITLE "Why Was I Born" PERFORMER "Eddie Higgins Trio" INDEX 00 05:00:31FILE "09. Why Was I Born.flac" WAVE INDEX 01 00:00:00 TRACK 10 AUDIO TITLE "Come Rain Or Come Shine" PERFORMER "Eddie Higgins Trio" INDEX 00 03:31:30FILE "10. Come Rain Or Come Shine.flac" WAVE INDEX 01 00:00:00 TRACK 11 AUDIO TITLE "The Way You Look Tonight" PERFORMER "Eddie Higgins Trio" INDEX 00 03:54:29FILE "11. The Way You Look Tonight.flac" WAVE INDEX 01 00:00:00 TRACK 12 AUDIO TITLE "Moonlight Serenade" PERFORMER "Eddie Higgins Trio" INDEX 00 04:55:31FILE "12. Moonlight Serenade.flac" WAVE INDEX 01 00:00:00 TRACK 13 AUDIO TITLE "It Might As Well Be Spring" PERFORMER "Eddie Higgins Trio" INDEX 00 05:04:30FILE "13. It Might As Well Be Spring.flac" WAVE INDEX 01 00:00:00
 
[CUETools log; Date: 19.01.2012 0:40:33; Version: 2.0.9][CTDB TOCID: JnY2xv06e3diKWAaGBYb8k5fz8g-] found. [ CTDBID ] Status [43ce5c35] (1/1) Accurately ripped[AccurateRip ID: 001e7bd5-012efa6a-cf0e6e0d] found.Track [ CRC ] Status 01 [ae9248f9] (06/12) Accurately ripped 02 [cb3e5fe9] (06/12) Accurately ripped 03 [43090f76] (06/12) Accurately ripped 04 [783c5779] (06/12) Accurately ripped 05 [7bbe148e] (06/11) Accurately ripped 06 [25635b6a] (06/12) Accurately ripped 07 [730d39d9] (06/12) Accurately ripped 08 [3cf10945] (06/12) Accurately ripped 09 [765c394b] (06/11) Accurately ripped 10 [09b0810b] (06/12) Accurately ripped 11 [6e3570e1] (06/12) Accurately ripped 12 [a8987028] (06/11) Accurately ripped 13 [b2d09537] (06/12) Accurately rippedOffsetted by 7: 01 [6017a2df] (04/12) Accurately ripped 02 [7c4d26f9] (04/12) Accurately ripped 03 [1f928051] (04/12) Accurately ripped 04 [2e8cda70] (04/12) Accurately ripped 05 [bd246d37] (03/11) Accurately ripped 06 [cd8a4595] (04/12) Accurately ripped 07 [1e5c90e7] (04/12) Accurately ripped 08 [a3f329b8] (04/12) Accurately ripped 09 [a74b5eea] (03/11) Accurately ripped 10 [236fd1eb] (04/12) Accurately ripped 11 [f489d8d5] (04/12) Accurately ripped 12 [05ef59fa] (03/11) Accurately ripped 13 [3e4c4268] (04/12) Accurately ripped

Track Peak [ CRC32 ] [W/O NULL] [ LOG ] -- 100,0 [7D9D0406] [4D8A44D0] 01 95,7 [95E2A6F3] [7050AD97] CRC32 02 99,4 [A35B4017] [177A13FA] CRC32 03 100,0 [35051230] [B31A57EF] CRC32 04 95,2 [8B5FE55D] [F2A89B1C] CRC32 05 99,1 [3234EE33] [7140F6A3] CRC32 06 98,9 [5B383B15] [588C3950] CRC32 07 100,0 [3FA33489] [ACDA3AF8] CRC32 08 99,5 [C8329D91] [97034694] CRC32 09 100,0 [105F6EF4] [4A6C1B86] CRC32 10 99,5 [DA00C277] [FEB4098C] CRC32 11 100,0 [C36A2D16] [649A1DAF] CRC32 12 94,4 [F9DCFCB3] [876E9B99] CRC32 13 100,0 [529A2C3A] [0AF0F7E0] CRC32


Трекер:  [ 28-Янв-2012 15:13 ]

  

Скачать .torrent

Размер .torrent файла 16 KB


Размер: 376 MB
Хэш (hash) релиза: 192d021d28d89a3a4338df1ce0e39bb439589d72

Еще никто не оставлял запись к записи скачать торрент Eddie Higgins Trio - A Lovely Way To Spend An Evening . Будь первым!

!Обратная связь