Скачать через торрент музыку Joe Pass - Virtuoso #3 бесплатно без регистрации torrent

Если у вас наблюдаются проблемы со скриншотами, переходом по ссылками, скачиванием торрентов - проблемы в блокировщике рекламы AdBlock. #хорошегоДня!


Статистика раздачи
Размер:  140 MB   |    Зарегистрирован:  5 лет 8 месяцев   |    .torrent скачан:  32 раза   |   
Раздают:  1  
   
Загрузка...
 
Автор Сообщение

Umakiro

avatar Umakiro


Joe Pass – Virtuoso #3 (1977)

Жанр: Bop
Год издания диска: 1992
Издатель (лейбл): Pablo
Номер по каталогу: OJCCD-684-2
Аудиокодек: FLAC (*.flac)
Тип рипа: tracks+.cue
Битрейт аудио: lossless
Продолжительность: 56:51
Источник (релизер): сеть
Наличие сканов в содержимом раздачи: да

Треклист:
01. Offbeat (4:50)
02. Trinidad (6:14)
03. Nina's Blues (5:19)
04. Sevenths (4:15)
05. Ninths (5:25)
06. Dissonance #1 (1:56)
07. Minor Detail (6:06)
08. Paco De Lucia (5:57)
09. Sultry (4:32)
10. Passanova (4:33)
11. Pasta Blues (4:40)
12. Dissonance #2 (3:04)

Joe Pass - guitar solo

Rec.: Group IV Recording Studios, Los Angeles, CA, May 27 and June 1, 1977.
 
 
EAC extraction logfile from 18. July 2007, 11:57 for CDJoe Pass / Virtuoso 3

Used drive : PLEXTOR CD-R PX-230A Adapter: 1 ID: 0Read mode : Secure with NO C2, accurate stream, disable cacheRead offset correction : 738Overread into Lead-In and Lead-Out : No

Used output format : C:\Program Files\EAC\flac.exe (User Defined Encoder) 320 kBit/s Additional command line options : -8 -V -T "artist=%a" -T "title=%t" -T "album=%g" -T "date=%y" -T "tracknumber=%n" -T "genre=%m" -T "comment=eac Flac 1.1.4 -8" %s

Other options : Fill up missing offset samples with silence : Yes Delete leading and trailing silent blocks : No Installed external ASPI interface

Track 1 Filename D:\Fiamma\Joe Pass - Virtuoso 3 (1992) [FLAC]\01 - Offbeat.wav

Pre-gap length 0:00:02.00

Peak level 81.5 % Track quality 100.0 % Test CRC AE7D996F Copy CRC AE7D996F Copy OK

Track 2 Filename D:\Fiamma\Joe Pass - Virtuoso 3 (1992) [FLAC]\02 - Trinidad.wav

Pre-gap length 0:00:01.26

Peak level 81.0 % Track quality 100.0 % Test CRC 4C4313E0 Copy CRC 4C4313E0 Copy OK

Track 3 Filename D:\Fiamma\Joe Pass - Virtuoso 3 (1992) [FLAC]\03 - Nina's Blues.wav

Pre-gap length 0:00:02.29

Peak level 71.0 % Track quality 99.9 % Test CRC 050E73BE Copy CRC 050E73BE Copy OK

Track 4 Filename D:\Fiamma\Joe Pass - Virtuoso 3 (1992) [FLAC]\04 - Sevenths.wav

Pre-gap length 0:00:02.86

Peak level 100.0 % Track quality 100.0 % Test CRC 28FD05CF Copy CRC 28FD05CF Copy OK

Track 5 Filename D:\Fiamma\Joe Pass - Virtuoso 3 (1992) [FLAC]\05 - Ninths.wav

Pre-gap length 0:00:02.82

Peak level 100.0 % Track quality 99.9 % Test CRC E5006F14 Copy CRC E5006F14 Copy OK

Track 6 Filename D:\Fiamma\Joe Pass - Virtuoso 3 (1992) [FLAC]\06 - Dissonance #1.wav

Pre-gap length 0:00:02.93

Peak level 51.4 % Track quality 100.0 % Test CRC 2CDF8B97 Copy CRC 2CDF8B97 Copy OK

Track 7 Filename D:\Fiamma\Joe Pass - Virtuoso 3 (1992) [FLAC]\07 - Minor Detail.wav

Pre-gap length 0:00:02.33

Peak level 81.2 % Track quality 99.9 % Test CRC 4463424A Copy CRC 4463424A Copy OK

Track 8 Filename D:\Fiamma\Joe Pass - Virtuoso 3 (1992) [FLAC]\08 - Paco De Lucia.wav

Pre-gap length 0:00:02.30

Peak level 72.7 % Track quality 100.0 % Test CRC 8C4EB89A Copy CRC 8C4EB89A Copy OK

Track 9 Filename D:\Fiamma\Joe Pass - Virtuoso 3 (1992) [FLAC]\09 - Sultry.wav

Pre-gap length 0:00:03.13

Peak level 79.2 % Track quality 100.0 % Test CRC BF915A70 Copy CRC BF915A70 Copy OK

Track 10 Filename D:\Fiamma\Joe Pass - Virtuoso 3 (1992) [FLAC]\10 - Passanova.wav

Pre-gap length 0:00:03.64

Peak level 88.0 % Track quality 100.0 % Test CRC 2B5B77B8 Copy CRC 2B5B77B8 Copy OK

Track 11 Filename D:\Fiamma\Joe Pass - Virtuoso 3 (1992) [FLAC]\11 - Pasta Blues.wav

Pre-gap length 0:00:02.64

Peak level 100.0 % Track quality 100.0 % Test CRC 1B331938 Copy CRC 1B331938 Copy OK

Track 12 Filename D:\Fiamma\Joe Pass - Virtuoso 3 (1992) [FLAC]\12 - Dissonance #2.wav

Pre-gap length 0:00:02.44

Peak level 76.4 % Track quality 100.0 % Test CRC 3566459E Copy CRC 3566459E Copy OK

No errors occured

End of status report
 
REM DATE 1977REM GENRE JazzPERFORMER "Joe Pass"TITLE "Virtuoso #3"FILE "01. Offbeat.flac" WAVE TRACK 01 AUDIO TITLE "Offbeat" PERFORMER "Joe Pass" INDEX 01 00:00:00 TRACK 02 AUDIO TITLE "Trinidad" PERFORMER "Joe Pass" INDEX 00 04:49:05FILE "02. Trinidad.flac" WAVE INDEX 01 00:00:00 TRACK 03 AUDIO TITLE "Nina's Blues" PERFORMER "Joe Pass" INDEX 00 06:11:48FILE "03. Nina's Blues.flac" WAVE INDEX 01 00:00:00 TRACK 04 AUDIO TITLE "Sevenths" PERFORMER "Joe Pass" INDEX 00 05:15:68FILE "04. Sevenths.flac" WAVE INDEX 01 00:00:00 TRACK 05 AUDIO TITLE "Ninths" PERFORMER "Joe Pass" INDEX 00 04:12:35FILE "05. Ninths.flac" WAVE INDEX 01 00:00:00 TRACK 06 AUDIO TITLE "Dissonance #1" PERFORMER "Joe Pass" INDEX 00 05:22:10FILE "06. Dissonance #1.flac" WAVE INDEX 01 00:00:00 TRACK 07 AUDIO TITLE "Minor Detail" PERFORMER "Joe Pass" INDEX 00 01:53:48FILE "07. Minor Detail.flac" WAVE INDEX 01 00:00:00 TRACK 08 AUDIO TITLE "Paco De Lucia" PERFORMER "Joe Pass" INDEX 00 06:03:22FILE "08. Paco De Lucia.flac" WAVE INDEX 01 00:00:00 TRACK 09 AUDIO TITLE "Sultry" PERFORMER "Joe Pass" INDEX 00 05:53:47FILE "09. Sultry.flac" WAVE INDEX 01 00:00:00 TRACK 10 AUDIO TITLE "Passanova" PERFORMER "Joe Pass" INDEX 00 04:28:35FILE "10. Passanova.flac" WAVE INDEX 01 00:00:00 TRACK 11 AUDIO TITLE "Pasta Blues" PERFORMER "Joe Pass" INDEX 00 04:30:32FILE "11. Pasta Blues.flac" WAVE INDEX 01 00:00:00 TRACK 12 AUDIO TITLE "Dissonance #2" PERFORMER "Joe Pass" INDEX 00 04:37:27FILE "12. Dissonance #2.flac" WAVE INDEX 01 00:00:00
 
AUDIOCHECKER v2.0 beta (build 457) - by Dester - opdester@freemail.hu~~~~~~~~~~~~~~~~~~~~~~~~~~~~~~~~~~-=== DO NOT EDIT THIS FILE! ===-

Path: ...\1977. Joe Pass - Vitruoso # 3

01 -=- 01. Offbeat.flac -=- CDDA (100%)02 -=- 02. Trinidad.flac -=- CDDA (100%)03 -=- 03. Nina's Blues.flac -=- CDDA (100%)04 -=- 04. Sevenths.flac -=- CDDA (100%)05 -=- 05. Ninths.flac -=- CDDA (100%)06 -=- 06. Dissonance #1.flac -=- CDDA (100%)07 -=- 07. Minor Detail.flac -=- CDDA (100%)08 -=- 08. Paco De Lucia.flac -=- CDDA (100%)09 -=- 09. Sultry.flac -=- CDDA (100%)10 -=- 10. Passanova.flac -=- CDDA (100%)11 -=- 11. Pasta Blues.flac -=- CDDA (100%)12 -=- 12. Dissonance #2.flac -=- CDDA (100%)

Summary 100,00% CDDA

75532996


Трекер:  [ 28-Янв-2012 15:12 ]

  

Скачать .torrent

Размер .torrent файла 12 KB


Размер: 140 MB
Хэш (hash) релиза: 9632af4b41e9d34c5a6629260d365ae760dfa607

Еще никто не оставлял запись к записи скачать торрент Joe Pass - Virtuoso #3 . Будь первым!

!Обратная связь