Скачать через торрент музыку Sonny Rollins - Greatest Hits - 1998, FLAC бесплатно без регистрации torrent

Если у вас наблюдаются проблемы со скриншотами, переходом по ссылками, скачиванием торрентов - проблемы в блокировщике рекламы AdBlock. #хорошегоДня!


Статистика раздачи
Размер:  344 MB   |    Зарегистрирован:  5 лет 8 месяцев   |    .torrent скачан:  27 раз   |   
Раздают:  1  
   
Загрузка...
 
Автор Сообщение

Umakiro

avatar Umakiro


Sonny Rollins - Greatest Hits

Жанр: Hard Bop, Bop, Saxophone Jazz
Год издания диска: 1998
Издатель (лейбл): RCA
Номер по каталогу: 52062
Страна: USA New York, NY
Аудиокодек: FLAC (*.flac)
Тип рипа: tracks+.cue
Битрейт аудио: lossless
Продолжительность: 00:57:00
Источник (релизер): anonymous
Наличие сканов в содержимом раздачи: нет
Треклист:
01. St. Thomas [03:56]
02. Round Midnight [03:59]
03. Four [05:50]
04. Night And Day [03:16]
05. Just Friends [04:35]
06. My One And Only Love [05:57]
07. Now's The Time [04:01]
08. Don't Stop The Carnival [06:10]
09. You Do Something To Me [06:45]
10. Brownskin Girl [06:44]
11. There Will Never Be Another You [05:42]

Recorded in New York, New York between 1962 and 1964.
 
Exact Audio Copy V0.99 prebeta 4 from 23. January 2008

EAC extraction logfile from 6. September 2008, 17:32

Sonny Rollins / Greatest Hits (RCA Victor)

Used drive : LITE-ON DVDRW LH-18A1P Adapter: 3 ID: 1

Read mode : SecureUtilize accurate stream : YesDefeat audio cache : YesMake use of C2 pointers : No

Read offset correction : 6Overread into Lead-In and Lead-Out : NoFill up missing offset samples with silence : YesDelete leading and trailing silent blocks : NoNull samples used in CRC calculations : YesUsed interface : Installed external ASPI interfaceGap handling : Appended to previous track

Used output format : User Defined EncoderSelected bitrate : 128 kBit/sQuality : HighAdd ID3 tag : NoCommand line compressor : C:\Program Files\Exact Audio Copy\Flac\flac.exeAdditional command line options : -V -8 -T "artist=%a" -T "title=%t" -T "album=%g" -T "date=%y" -T "tracknumber=%n" -T "genre=%m" %s

TOC of the extracted CD

Track | Start | Length | Start sector | End sector --------------------------------------------------------- 1 | 0:00.00 | 3:59.10 | 0 | 17934 2 | 3:59.10 | 4:02.27 | 17935 | 36111 3 | 8:01.37 | 5:53.23 | 36112 | 62609 4 | 13:54.60 | 3:18.52 | 62610 | 77511 5 | 17:13.37 | 4:38.25 | 77512 | 98386 6 | 21:51.62 | 5:59.48 | 98387 | 125359 7 | 27:51.35 | 4:04.25 | 125360 | 143684 8 | 31:55.60 | 6:12.52 | 143685 | 171636 9 | 38:08.37 | 6:47.70 | 171637 | 202231 10 | 44:56.32 | 6:47.03 | 202232 | 232759 11 | 51:43.35 | 5:42.42 | 232760 | 258451

Track 1

Filename C:\Documents and Settings\John\My Documents\EAC Rips\Sonny Rollins - Greatest Hits (RCA Victor) (FLAC)\01 - St. Thomas.wav

Pre-gap length 0:00:02.00

Peak level 98.0 % Track quality 100.0 % Test CRC 65CD3986 Copy CRC 65CD3986 Track not present in AccurateRip database Copy OK

Track 2

Filename C:\Documents and Settings\John\My Documents\EAC Rips\Sonny Rollins - Greatest Hits (RCA Victor) (FLAC)\02 - Round Midnight.wav

Pre-gap length 0:00:02.66

Peak level 98.0 % Track quality 100.0 % Test CRC 54D19169 Copy CRC 54D19169 Track not present in AccurateRip database Copy OK

Track 3

Filename C:\Documents and Settings\John\My Documents\EAC Rips\Sonny Rollins - Greatest Hits (RCA Victor) (FLAC)\03 - Four.wav

Pre-gap length 0:00:02.73

Peak level 98.0 % Track quality 99.9 % Test CRC 6F4920F6 Copy CRC 6F4920F6 Track not present in AccurateRip database Copy OK

Track 4

Filename C:\Documents and Settings\John\My Documents\EAC Rips\Sonny Rollins - Greatest Hits (RCA Victor) (FLAC)\04 - Night And Day.wav

Pre-gap length 0:00:02.64

Peak level 98.0 % Track quality 100.0 % Test CRC 49E53C7D Copy CRC 49E53C7D Track not present in AccurateRip database Copy OK

Track 5

Filename C:\Documents and Settings\John\My Documents\EAC Rips\Sonny Rollins - Greatest Hits (RCA Victor) (FLAC)\05 - Just Friends.wav

Pre-gap length 0:00:02.22

Peak level 91.2 % Track quality 100.0 % Test CRC 618ABF33 Copy CRC 618ABF33 Track not present in AccurateRip database Copy OK

Track 6

Filename C:\Documents and Settings\John\My Documents\EAC Rips\Sonny Rollins - Greatest Hits (RCA Victor) (FLAC)\06 - My One And Only Love.wav

Pre-gap length 0:00:02.49

Peak level 84.2 % Track quality 99.9 % Test CRC 7596FE8E Copy CRC 7596FE8E Track not present in AccurateRip database Copy OK

Track 7

Filename C:\Documents and Settings\John\My Documents\EAC Rips\Sonny Rollins - Greatest Hits (RCA Victor) (FLAC)\07 - Now's The Time.wav

Pre-gap length 0:00:02.53

Peak level 97.9 % Track quality 100.0 % Test CRC EDFEBF48 Copy CRC EDFEBF48 Track not present in AccurateRip database Copy OK

Track 8

Filename C:\Documents and Settings\John\My Documents\EAC Rips\Sonny Rollins - Greatest Hits (RCA Victor) (FLAC)\08 - Don't Stop The Carnival.wav

Pre-gap length 0:00:02.70

Peak level 86.6 % Track quality 100.0 % Test CRC 06BAD819 Copy CRC 06BAD819 Track not present in AccurateRip database Copy OK

Track 9

Filename C:\Documents and Settings\John\My Documents\EAC Rips\Sonny Rollins - Greatest Hits (RCA Victor) (FLAC)\09 - You Do Something To Me.wav

Pre-gap length 0:00:02.22

Peak level 98.0 % Track quality 100.0 % Test CRC BF756C26 Copy CRC BF756C26 Track not present in AccurateRip database Copy OK

Track 10

Filename C:\Documents and Settings\John\My Documents\EAC Rips\Sonny Rollins - Greatest Hits (RCA Victor) (FLAC)\10 - Brownskin Girl.wav

Pre-gap length 0:00:02.40

Peak level 87.3 % Track quality 100.0 % Test CRC 5CB7240C Copy CRC 5CB7240C Track not present in AccurateRip database Copy OK

Track 11

Filename C:\Documents and Settings\John\My Documents\EAC Rips\Sonny Rollins - Greatest Hits (RCA Victor) (FLAC)\11 - There Will Never Be Another You.wav

Pre-gap length 0:00:02.40

Peak level 94.7 % Track quality 100.0 % Test CRC 121951C7 Copy CRC 121951C7 Track not present in AccurateRip database Copy OK

None of the tracks are present in the AccurateRip database

No errors occurred

End of status report
 
REM GENRE JazzREM DATE 1998REM DISCID 8C0D760BREM COMMENT "ExactAudioCopy v0.99pb4"PERFORMER "Sonny Rollins"TITLE "Greatest Hits (RCA Victor)"FILE "01 - St. Thomas.wav" WAVE TRACK 01 AUDIO TITLE "St. Thomas" PERFORMER "Sonny Rollins" INDEX 01 00:00:00 TRACK 02 AUDIO TITLE "Round Midnight" PERFORMER "Sonny Rollins" INDEX 00 03:56:35FILE "02 - Round Midnight.wav" WAVE INDEX 01 00:00:00 TRACK 03 AUDIO TITLE "Four" PERFORMER "Sonny Rollins" INDEX 00 03:59:47FILE "03 - Four.wav" WAVE INDEX 01 00:00:00 TRACK 04 AUDIO TITLE "Night And Day" PERFORMER "Sonny Rollins" INDEX 00 05:50:50FILE "04 - Night And Day.wav" WAVE INDEX 01 00:00:00 TRACK 05 AUDIO TITLE "Just Friends" PERFORMER "Sonny Rollins" INDEX 00 03:16:35FILE "05 - Just Friends.wav" WAVE INDEX 01 00:00:00 TRACK 06 AUDIO TITLE "My One And Only Love" PERFORMER "Sonny Rollins" INDEX 00 04:35:63FILE "06 - My One And Only Love.wav" WAVE INDEX 01 00:00:00 TRACK 07 AUDIO TITLE "Now's The Time" PERFORMER "Sonny Rollins" INDEX 00 05:57:08FILE "07 - Now's The Time.wav" WAVE INDEX 01 00:00:00 TRACK 08 AUDIO TITLE "Don't Stop The Carnival" PERFORMER "Sonny Rollins" INDEX 00 04:01:47FILE "08 - Don't Stop The Carnival.wav" WAVE INDEX 01 00:00:00 TRACK 09 AUDIO TITLE "You Do Something To Me" PERFORMER "Sonny Rollins" INDEX 00 06:10:35FILE "09 - You Do Something To Me.wav" WAVE INDEX 01 00:00:00 TRACK 10 AUDIO TITLE "Brownskin Girl" PERFORMER "Sonny Rollins" INDEX 00 06:45:40FILE "10 - Brownskin Girl.wav" WAVE INDEX 01 00:00:00 TRACK 11 AUDIO TITLE "There Will Never Be Another You" PERFORMER "Sonny Rollins" INDEX 00 06:44:48FILE "11 - There Will Never Be Another You.wav" WAVE INDEX 01 00:00:00
 
-----------------------

DON'T MODIFY THIS FILE

-----------------------

PERFORMER: auCDtect Task Manager, ver. 1.5.1RC6 build 1.5.1.7Copyright (c) 2008-2010 y-soft. All rights reservedhttp://y-soft.org

ANALYZER: auCDtect: CD records authenticity detector, version 0.8.2Copyright (c) 2004 Oleg Berngardt. All rights reserved.Copyright (c) 2004 Alexander Djourik. All rights reserved.

FILE: 11 - There Will Never Be Another You.flac Size: 35742514 Hash: 03A67CB596108F073B58EF6722F3A7F9 Accuracy: -m0 Conclusion: CDDA 100% Signature: 40C7A47F7254196342C691C843465E15A44C28D0FILE: 10 - Brownskin Girl.flac Size: 48400043 Hash: 44D5C1A8044FC4FDDACCD0C978C24FCA Accuracy: -m0 Conclusion: CDDA 100% Signature: 28977E0082575232B5F2446F677BF9F9C6972A89FILE: 09 - You Do Something To Me.flac Size: 43645595 Hash: 74164464A934261686BA2E78206F6427 Accuracy: -m0 Conclusion: CDDA 100% Signature: D6481F909CC9281B587E4B12E95EEC9BD05C4F00FILE: 08 - Don't Stop The Carnival.flac Size: 43916251 Hash: B9EA8F18E0E93E48C22185474309975E Accuracy: -m0 Conclusion: CDDA 100% Signature: 19FBD7C65EC3885F94DE20A657F2BC358BB5B65FFILE: 07 - Now's The Time.flac Size: 26292444 Hash: C06A34B546080E9C5A88D5B7D689BD4F Accuracy: -m0 Conclusion: CDDA 100% Signature: D8BD4B7308F05538B47B1B59F2C6B25B527220F8FILE: 06 - My One And Only Love.flac Size: 32831250 Hash: 782AF8FD233867953F1D04E13DCF7C6C Accuracy: -m0 Conclusion: CDDA 100% Signature: 6D4F9349A84B52CA21F772922B8291E29D1FAA8CFILE: 05 - Just Friends.flac Size: 28323096 Hash: 7BD69C637743E8771F533776446819C5 Accuracy: -m0 Conclusion: CDDA 100% Signature: 131681FB5FA3DACAE98AF9247ABA2C05C606956EFILE: 04 - Night And Day.flac Size: 20720318 Hash: 7794DD14FC1C32A4C441014EE15363CB Accuracy: -m0 Conclusion: CDDA 100% Signature: 6B4CF514CDB9E8DAA318DF7E9CBDB47BC5982976FILE: 03 - Four.flac Size: 35203076 Hash: F3F3BB1B19E0697C1CEF573C6A11ACA3 Accuracy: -m0 Conclusion: CDDA 99% Signature: 9F1B207720B1DC40CA6B803DCB4B68B9D6C2A83EFILE: 02 - Round Midnight.flac Size: 21575863 Hash: 44A27164C43DEA99EDEFF809111DF6C7 Accuracy: -m0 Conclusion: CDDA 100% Signature: 2979254A815F069F8EED1BE66FD37F256B56C4A1FILE: 01 - St. Thomas.flac Size: 23700505 Hash: BC531910DD12FA085141C2630B636B5D Accuracy: -m0 Conclusion: CDDA 100% Signature: 9A4CE440B0D6ED89552012B292B35D46BD80F30F
Sonny Rollins, Coleman Hawkins (tenor saxophone);
Don Cherry (cornet);
Herbie Hancock, Paul Bley (piano);
Jim Hall (guitar);
Ron Carter, Bob Cranshaw, Henry Grimes (bass);
Billy Higgins, Roy McCurdy, Mickey Roker, Ben Riley (drums).


Трекер:  [ 28-Янв-2012 15:12 ]

  

Скачать .torrent

Размер .torrent файла 15 KB


Размер: 344 MB
Хэш (hash) релиза: 98c2611a44a5dae2bba18590e0f90bc7de1842b8

Еще никто не оставлял запись к записи скачать торрент Sonny Rollins - Greatest Hits - 1998, FLAC . Будь первым!

!Обратная связь