Скачать через торрент музыку Joe Pass — Montreux 77 — 1989, FLAC бесплатно без регистрации torrent

Если у вас наблюдаются проблемы со скриншотами, переходом по ссылками, скачиванием торрентов - проблемы в блокировщике рекламы AdBlock. #хорошегоДня!


Статистика раздачи
Размер:  152 MB   |    Зарегистрирован:  5 лет 8 месяцев   |    .torrent скачан:  40 раз   |   
Раздают:  1  
   
Загрузка...
 
Автор Сообщение

Umakiro

avatar Umakiro


Joe Pass – Montreux '77

Жанр: Bop
Год издания диска: 1989
Издатель (лейбл): Pablo
Номер по каталогу: OJCCD-382-2
Аудиокодек: FLAC (*.flac)
Тип рипа: tracks+.cue
Битрейт аудио: lossless
Продолжительность: 41:57
Источник (релизер): сеть
Наличие сканов в содержимом раздачи: да

Треклист:
01. Blues For Yano San (6:11)
02. Blues For Sitges (8:56)
03. Blues For Val (6:05)
04. Wait Till You See Her (5:23)
05. She's Funny That Way (5:04)
06. Blues For Martin (4:21)
07. Masquerade (5:57)

Joe Pass - guitar solo

Rec.: Montreux Jazz Festival, "Casino De Montreux", Switzerland, July 15, 1977.
 
 
EAC extraction logfile from 30. June 2007, 17:34 for CDJoe Pass / Montreux 77

Used drive : HL-DT-STDVDRAM GSA-4163B Adapter: 1 ID: 1Read mode : Secure with NO C2, accurate stream, disable cacheRead offset correction : 667Overread into Lead-In and Lead-Out : No

Used output format : Internal WAV Routines 44.100 Hz; 16 Bit; Stereo

Other options : Fill up missing offset samples with silence : Yes Delete leading and trailing silent blocks : No Installed external ASPI interface

Track 1 Filename D:\Joe Pass - Montreux '77 (1977)[FLAC][OJC}\01 - Blues for Yano San.wav

Pre-gap length 0:00:02.00

Peak level 66.1 % Test CRC BEBAA16C Copy CRC BEBAA16C Copy OK

Track 2 Filename D:\Joe Pass - Montreux '77 (1977)[FLAC][OJC}\02 - Blues for Sitges.wav

Pre-gap length 0:00:00.04

Peak level 74.2 % Test CRC E40BD324 Copy CRC E40BD324 Copy OK

Track 3 Filename D:\Joe Pass - Montreux '77 (1977)[FLAC][OJC}\03 - Blues for Val.wav

Pre-gap length 0:00:00.46

Peak level 51.0 % Test CRC C5863E5F Copy CRC C5863E5F Copy OK

Track 4 Filename D:\Joe Pass - Montreux '77 (1977)[FLAC][OJC}\04 - Wait Till You See Her.wav

Pre-gap length 0:00:01.12

Peak level 53.7 % Test CRC C7D7D0D1 Copy CRC C7D7D0D1 Copy OK

Track 5 Filename D:\Joe Pass - Montreux '77 (1977)[FLAC][OJC}\05 - She's Funny That Way.wav

Pre-gap length 0:00:00.06

Peak level 62.6 % Test CRC EE06FDF5 Copy CRC EE06FDF5 Copy OK

Track 6 Filename D:\Joe Pass - Montreux '77 (1977)[FLAC][OJC}\06 - Blues for Martin.wav

Pre-gap length 0:00:00.14

Peak level 90.7 % Test CRC AD710257 Copy CRC AD710257 Copy OK

Track 7 Filename D:\Joe Pass - Montreux '77 (1977)[FLAC][OJC}\07 - Masquerade.wav

Pre-gap length 0:00:00.05

Peak level 83.8 % Test CRC 8D1EE9A7 Copy CRC 8D1EE9A7 Copy OK

No errors occured

End of status report
 
REM DATE 1977REM GENRE JazzREM DISCID 5909D407REM COMMENT "ExactAudioCopy v0.95b2"PERFORMER "Joe Pass"TITLE "Montreux '77"FILE "01. Blues For Yano San.flac" WAVE TRACK 01 AUDIO TITLE "Blues For Yano San" PERFORMER "Joe Pass" INDEX 01 00:00:00 TRACK 02 AUDIO TITLE "Blues For Sitges" PERFORMER "Joe Pass" INDEX 00 06:10:66FILE "02. Blues For Sitges.flac" WAVE INDEX 01 00:00:00 TRACK 03 AUDIO TITLE "Blues For Val" PERFORMER "Joe Pass" INDEX 00 08:55:01FILE "03. Blues For Val.flac" WAVE INDEX 01 00:00:00 TRACK 04 AUDIO TITLE "Wait Till You See Her" PERFORMER "Joe Pass" INDEX 00 06:04:21FILE "04. Wait Till You See Her.flac" WAVE INDEX 01 00:00:00 TRACK 05 AUDIO TITLE "She's Funny That Way" PERFORMER "Joe Pass" INDEX 00 05:23:19FILE "05. She's Funny That Way.flac" WAVE INDEX 01 00:00:00 TRACK 06 AUDIO TITLE "Blues For Martin" PERFORMER "Joe Pass" INDEX 00 05:03:46FILE "06. Blues For Martin.flac" WAVE INDEX 01 00:00:00 TRACK 07 AUDIO TITLE "Masquerade" PERFORMER "Joe Pass" INDEX 00 04:20:60FILE "07. Masquerade.flac" WAVE INDEX 01 00:00:00
 
[CUETools log; Date: 16.01.2012 0:38:23; Version: 2.0.9][CTDB TOCID: VE8gLR0pSL9zqeTjqs4Zru1gJRs-] disk not present in database.[AccurateRip ID: 000c44d4-00484c45-5909d407] found.Track [ CRC ] Status 01 [96456501] (1/1) Accurately ripped 02 [d5a7e2b0] (1/1) Accurately ripped 03 [b55bd94c] (1/1) Accurately ripped 04 [fc6e1c95] (1/1) Accurately ripped 05 [1032f1d3] (1/1) Accurately ripped 06 [7e791473] (1/1) Accurately ripped 07 [5c1630e7] (1/1) Accurately ripped

Track Peak [ CRC32 ] [W/O NULL] [ LOG ] -- 90,7 [F1790951] [7B50C609] 01 66,1 [1FAA9EED] [BEBAA16C] W/O NULL 02 74,2 [70D71E9D] [E40BD324] W/O NULL 03 51,0 [08B6113A] [C5863E5F] W/O NULL 04 53,7 [E716AFF7] [C7D7D0D1] W/O NULL 05 62,6 [03A6F4B4] [EE06FDF5] W/O NULL 06 90,7 [C5BC0B65] [AD710257] W/O NULL 07 83,8 [B2D1FBF0] [8D1EE9A7] W/O NULL


Трекер:  [ 28-Янв-2012 15:11 ]

  

Скачать .torrent

Размер .torrent файла 13 KB


Размер: 152 MB
Хэш (hash) релиза: d6393037fa77885caf6c1c63d8b5336723a576b4

Еще никто не оставлял запись к записи скачать торрент Joe Pass — Montreux 77 — 1989, FLAC . Будь первым!

!Обратная связь