Скачать через торрент музыку Kenny Barron Trio - Minor Blues - 2009, FLAC бесплатно без регистрации torrent

Если у вас наблюдаются проблемы со скриншотами, переходом по ссылками, скачиванием торрентов - проблемы в блокировщике рекламы AdBlock. #хорошегоДня!


Статистика раздачи
Размер:  447 MB   |    Зарегистрирован:  5 лет 8 месяцев   |    .torrent скачан:  29 раз   |   
Раздают:  1  
   
Загрузка...
 
Автор Сообщение

Umakiro

avatar Umakiro


Kenny Barron Trio - Minor Blues

Жанр: Mainstream Jazz, Post-Bop
Год выпуска диска: 2009
Производитель диска: ?? Venus Records, Inc. (VHCD-1032)
Аудио кодек: FLAC
Тип рипа: tracks+.cue
Битрейт аудио: lossless
Продолжительность: 1:12:59
Источник: Собственные рипы

Треклист:

01. Minor Blues - 6:33
02. Beautiful Love - 6:58
03. Emily - 6:56
04. For Heaven's Sake - 9:04
05. How Deep Is The Ocean - 8:20
06. Too Late Now - 8:38
07. Don't Explain - 6:34
08. Hush-A-Bye - 6:26
09. I've Never Been In Love Before - 6:52
10. My Ideal - 6:38

Доп. информация:

МУЗЫКАНТЫ:
Kenny Barron - Piano
George Mraz - Bass
Ben Riley - Drums
 
Exact Audio Copy V0.99 prebeta 5 from 4. May 2009

EAC extraction logfile from 3. December 2009, 17:33

Kenny Barron Trio / Minor Blues

Used drive : HL-DT-STDVD-RAM GSA-H55N Adapter: 0 ID: 2

Read mode : SecureUtilize accurate stream : YesDefeat audio cache : YesMake use of C2 pointers : No

Read offset correction : 102Overread into Lead-In and Lead-Out : YesFill up missing offset samples with silence : YesDelete leading and trailing silent blocks : NoNull samples used in CRC calculations : YesUsed interface : Installed external ASPI interfaceGap handling : Appended to previous track

Used output format : User Defined EncoderSelected bitrate : 128 kBit/sQuality : HighAdd ID3 tag : NoCommand line compressor : G:\Program Files\Exact Audio Copy\Encoder\flac.exeAdditional command line options : -V -8 -T "Genre=%m" -T "Artist=%a" -T "Title=%t" -T "Album=%g" -T "Year=%y" -T "Tracknumber=%n" -T "Comment=EACpb5 -8" %s

TOC of the extracted CD

Track | Start | Length | Start sector | End sector --------------------------------------------------------- 1 | 0:00.00 | 6:33.12 | 0 | 29486 2 | 6:33.12 | 6:58.23 | 29487 | 60859 3 | 13:31.35 | 6:55.58 | 60860 | 92042 4 | 20:27.18 | 9:04.08 | 92043 | 132850 5 | 29:31.26 | 8:20.05 | 132851 | 170355 6 | 37:51.31 | 8:38.20 | 170356 | 209225 7 | 46:29.51 | 6:34.16 | 209226 | 238791 8 | 53:03.67 | 6:26.02 | 238792 | 267743 9 | 59:29.69 | 6:51.44 | 267744 | 298612 10 | 66:21.38 | 6:37.54 | 298613 | 328441

Track 1

Filename F:\WAV\01 - Minor Blues.wav

Pre-gap length 0:00:02.00

Peak level 100.0 % Track quality 99.9 % Test CRC F13D2B9C Copy CRC F13D2B9C Cannot be verified as accurate (confidence 1) [218FBA4B], AccurateRip returned [F1F55E1B] Copy OK

Track 2

Filename F:\WAV\02 - Beautiful Love.wav

Pre-gap length 0:00:03.45

Peak level 100.0 % Track quality 100.0 % Test CRC 1103E17A Copy CRC 1103E17A Cannot be verified as accurate (confidence 1) [33A7516C], AccurateRip returned [7DE35AE0] Copy OK

Track 3

Filename F:\WAV\03 - Emily.wav

Pre-gap length 0:00:03.45

Peak level 100.0 % Track quality 100.0 % Test CRC 94F74244 Copy CRC 94F74244 Cannot be verified as accurate (confidence 1) [A576566B], AccurateRip returned [6C233F43] Copy OK

Track 4

Filename F:\WAV\04 - For Heaven's Sake.wav

Pre-gap length 0:00:03.45

Peak level 100.0 % Track quality 100.0 % Test CRC C702DDFF Copy CRC C702DDFF Cannot be verified as accurate (confidence 1) [5C4F8803], AccurateRip returned [BA92CF63] Copy OK

Track 5

Filename F:\WAV\05 - How Deep Is The Ocean.wav

Pre-gap length 0:00:03.45

Peak level 100.0 % Track quality 99.9 % Test CRC 7D09EDA7 Copy CRC 7D09EDA7 Cannot be verified as accurate (confidence 1) [83161D43], AccurateRip returned [07D3059B] Copy OK

Track 6

Filename F:\WAV\06 - Too Late Now.wav

Pre-gap length 0:00:03.45

Peak level 98.9 % Track quality 100.0 % Test CRC AD650F29 Copy CRC AD650F29 Cannot be verified as accurate (confidence 1) [845A7E4F], AccurateRip returned [70FB266B] Copy OK

Track 7

Filename F:\WAV\07 - Don't Explain.wav

Pre-gap length 0:00:03.45

Peak level 100.0 % Track quality 100.0 % Test CRC 840D994D Copy CRC 840D994D Cannot be verified as accurate (confidence 1) [E01341E5], AccurateRip returned [A33FE53D] Copy OK

Track 8

Filename F:\WAV\08 - Hush-A-Bye.wav

Pre-gap length 0:00:03.45

Peak level 100.0 % Track quality 100.0 % Test CRC 2310C953 Copy CRC 2310C953 Cannot be verified as accurate (confidence 1) [72CE000D], AccurateRip returned [50996591] Copy OK

Track 9

Filename F:\WAV\09 - I've Never Been In Love Before.wav

Pre-gap length 0:00:03.45

Peak level 100.0 % Track quality 100.0 % Test CRC CC4280DB Copy CRC CC4280DB Cannot be verified as accurate (confidence 1) [59C6FFB7], AccurateRip returned [D263B083] Copy OK

Track 10

Filename F:\WAV\10 - My Ideal.wav

Pre-gap length 0:00:03.45

Peak level 100.0 % Track quality 100.0 % Test CRC 62606A31 Copy CRC 62606A31 Cannot be verified as accurate (confidence 1) [7B6B36B4], AccurateRip returned [B63CF8A1] Copy OK

No tracks could be verified as accurateYou may have a different pressing from the one(s) in the database

No errors occurred

End of status report
Что можно сказать об этом альбоме, кроме "браво"? Об этой музыке нужно не рассказывать, её нужно слушать. Она цепляет с первых же нот и слушается, как говорится, на одном дыхании. Первые композиции настолько плотно наполнены звуком, настолько задорны и экспрессивны, что порой трудно поверить, что всё это играют, в классическом составе джазового трио, седовласые, образно говоря, мэтры. Шутка ли? Самому молодому из них, "Жоре Морозу" , в текущем году исполнилось 65. К середине альбома музыка несколько успокаивается, но продолжает быть интересной. Интересной не только поклонникам такого звучания, но и слушателям вроде меня, относящимся к данному стилю несколько прохладно. А некоторые композиции в этом исполнении, например Beautiful Love, хочется слушать ещё и ещё...

Трекер:  [ 28-Янв-2012 15:11 ]

  

Скачать .torrent

Размер .torrent файла 19 KB


Размер: 447 MB
Хэш (hash) релиза: 814f635a2149122c516dd012cc3423eead7cc7e9

Еще никто не оставлял запись к записи скачать торрент Kenny Barron Trio - Minor Blues - 2009, FLAC . Будь первым!

!Обратная связь