Скачать через торрент музыку Clifford Brown, Max Roach - Clifford Brown And Max Roach - 1955, FLAC бесплатно без регистрации torrent

Если у вас наблюдаются проблемы со скриншотами, переходом по ссылками, скачиванием торрентов - проблемы в блокировщике рекламы AdBlock. #хорошегоДня!


Статистика раздачи
Размер:  179 MB   |    Зарегистрирован:  5 лет 8 месяцев   |    .torrent скачан:  13 раз   |   
Раздают:  1  
   
Загрузка...
 
Автор Сообщение

Umakiro

avatar Umakiro


Clifford Brown, Max Roach – Clifford Brown And Max Roach

Жанр: Hard Bop
Год издания диска: 1955
Издатель (лейбл): Emarcy
Аудиокодек: FLAC (*.flac)
Тип рипа: tracks+.cue
Битрейт аудио: lossless
Продолжительность: 40:19
Источник (релизер): найдено в сети
Наличие сканов в содержимом раздачи: нет

Треклист:
01. Delilah (8:07)
02. Parisian Thoroughfare (7:19)
03. The Blues Walk (6:47)
04. Daahoud (4:04)
05. Joy Spring (6:51)
06. Jordu (4:04)
07. What Am I Here For? (3:07)

Personnel:
Clifford Brown - tp
Max Roach - d
Harold Land - ts
Richie Powell - p
George Morrow - b

Rec.: Capitol Studios, Holywood, CA, August 2 (#1, 2), 3 (#6) & 6 (#4, 5) 1954; Capitol Studios, NYC, NY, February 24 (#3, 7)1955.
 
 
X Lossless Decoder version 20100911 (122.0)

XLD extraction logfile from 2010-09-16 21:42:56 -0400

Clifford Brown / Clifford Brown & Max Roach

Used drive : MATSHITA DVD-R UJ-857E (revision ZF1E)

Use cdparanoia mode : YES (CDParanoia III 10.2 engine)Disable audio cache : OK for the drive with cache less than 2750KBMake use of C2 pointers : NORead offset correction : 102Max retry count : 100Gap status : Analyzed, Appended

TOC of the extracted CD Track | Start | Length | Start sector | End sector --------------------------------------------------------- 1 | 00:00:32 | 08:06:15 | 32 | 36496 2 | 08:06:47 | 07:19:13 | 36497 | 69434 3 | 15:25:60 | 06:47:15 | 69435 | 99974 4 | 22:13:00 | 04:04:00 | 99975 | 118274 5 | 26:17:00 | 06:51:07 | 118275 | 149106 6 | 33:08:07 | 04:03:70 | 149107 | 167401 7 | 37:12:02 | 03:07:23 | 167402 | 181449

All Tracks Album gain : -3.71 dB Peak : 1.000000

Track 01 Filename : /Volumes/MADLIB/01 Clifford Brown - Delilah.flac Pre-gap length : 00:02:32

Track gain : -3.38 dB Peak : 0.964325 CRC32 hash (test run) : B91A1E0D CRC32 hash : B91A1E0D CRC32 hash (skip zero) : F5D6BD19 AccurateRip signature : 5F759EC4 ->Accurately ripped! (confidence 5) Statistics Read error : 0 Skipped (treated as error) : 0 Edge jitter error (maybe fixed) : 0 Atom jitter error (maybe fixed) : 0 Drift error (maybe fixed) : 0 Dropped bytes error (maybe fixed) : 0 Duplicated bytes error (maybe fixed) : 0 Inconsistency in error sectors : 0

Track 02 Filename : /Volumes/MADLIB/02 Clifford Brown - Parisian Thoroughfare.flac Pre-gap length : 00:02:00

Track gain : -3.11 dB Peak : 1.000000 CRC32 hash (test run) : 9D3C238E CRC32 hash : 9D3C238E CRC32 hash (skip zero) : F1765F79 AccurateRip signature : 5F6CAFEC ->Accurately ripped! (confidence 5) Statistics Read error : 0 Skipped (treated as error) : 0 Edge jitter error (maybe fixed) : 0 Atom jitter error (maybe fixed) : 0 Drift error (maybe fixed) : 0 Dropped bytes error (maybe fixed) : 0 Duplicated bytes error (maybe fixed) : 0 Inconsistency in error sectors : 0

Track 03 Filename : /Volumes/MADLIB/03 Clifford Brown - The Blues Walk.flac Pre-gap length : 00:02:70

Track gain : -4.86 dB Peak : 0.936371 CRC32 hash (test run) : F0F9CDB9 CRC32 hash : F0F9CDB9 CRC32 hash (skip zero) : 45CE1E09 AccurateRip signature : 96D4485A ->Accurately ripped! (confidence 5) Statistics Read error : 0 Skipped (treated as error) : 0 Edge jitter error (maybe fixed) : 0 Atom jitter error (maybe fixed) : 0 Drift error (maybe fixed) : 0 Dropped bytes error (maybe fixed) : 0 Duplicated bytes error (maybe fixed) : 0 Inconsistency in error sectors : 0

Track 04 Filename : /Volumes/MADLIB/04 Clifford Brown - Daahoud.flac Pre-gap length : 00:03:33

Track gain : -1.11 dB Peak : 0.932007 CRC32 hash (test run) : 7FD60BD0 CRC32 hash : 7FD60BD0 CRC32 hash (skip zero) : 2551D230 AccurateRip signature : E1F848A7 ->Accurately ripped! (confidence 5) Statistics Read error : 0 Skipped (treated as error) : 0 Edge jitter error (maybe fixed) : 0 Atom jitter error (maybe fixed) : 0 Drift error (maybe fixed) : 0 Dropped bytes error (maybe fixed) : 0 Duplicated bytes error (maybe fixed) : 0 Inconsistency in error sectors : 0

Track 05 Filename : /Volumes/MADLIB/05 Clifford Brown - Joy Spring.flac Pre-gap length : 00:02:67

Track gain : -3.47 dB Peak : 0.919098 CRC32 hash (test run) : 218EFD14 CRC32 hash : 218EFD14 CRC32 hash (skip zero) : 2F7BBD85 AccurateRip signature : ED8830B6 ->Accurately ripped! (confidence 5) Statistics Read error : 0 Skipped (treated as error) : 0 Edge jitter error (maybe fixed) : 0 Atom jitter error (maybe fixed) : 0 Drift error (maybe fixed) : 0 Dropped bytes error (maybe fixed) : 0 Duplicated bytes error (maybe fixed) : 0 Inconsistency in error sectors : 0

Track 06 Filename : /Volumes/MADLIB/06 Clifford Brown - Jordu.flac Pre-gap length : 00:01:30

Track gain : -5.09 dB Peak : 1.000000 CRC32 hash (test run) : B661D918 CRC32 hash : B661D918 CRC32 hash (skip zero) : B7C61D80 AccurateRip signature : 182E02F9 ->Accurately ripped! (confidence 4) Statistics Read error : 0 Skipped (treated as error) : 0 Edge jitter error (maybe fixed) : 0 Atom jitter error (maybe fixed) : 0 Drift error (maybe fixed) : 0 Dropped bytes error (maybe fixed) : 0 Duplicated bytes error (maybe fixed) : 0 Inconsistency in error sectors : 0

Track 07 Filename : /Volumes/MADLIB/07 Clifford Brown - What Am I Here For.flac Pre-gap length : 00:03:27

Track gain : -2.54 dB Peak : 0.718689 CRC32 hash (test run) : 6B4CFDF4 CRC32 hash : 6B4CFDF4 CRC32 hash (skip zero) : 9BDA98E7 AccurateRip signature : 1C82F830 ->Accurately ripped! (confidence 6) Statistics Read error : 0 Skipped (treated as error) : 0 Edge jitter error (maybe fixed) : 0 Atom jitter error (maybe fixed) : 18 Drift error (maybe fixed) : 0 Dropped bytes error (maybe fixed) : 0 Duplicated bytes error (maybe fixed) : 0 Inconsistency in error sectors : 0

No errors occurred

End of status report
 
REM DATE 1955REM GENRE JazzTITLE "Clifford Brown & Max Roach"PERFORMER "Clifford Brown, Max Roach"REM DISCID 68097307FILE "01. Delilah.flac" WAVE TRACK 01 AUDIO TITLE "Delilah" INDEX 00 00:00:00 INDEX 01 00:00:32 TRACK 02 AUDIO TITLE "Parisian Thoroughfare" INDEX 00 08:04:15FILE "02. Parisian Thoroughfare.flac" WAVE INDEX 01 00:00:00 TRACK 03 AUDIO TITLE "The Blues Walk" INDEX 00 07:16:18FILE "03. The Blues Walk.flac" WAVE INDEX 01 00:00:00 TRACK 04 AUDIO TITLE "Daahoud" INDEX 00 06:43:57FILE "04. Daahoud.flac" WAVE INDEX 01 00:00:00 TRACK 05 AUDIO TITLE "Joy Spring" INDEX 00 04:01:08FILE "05. Joy Spring.flac" WAVE INDEX 01 00:00:00 TRACK 06 AUDIO TITLE "Jordu" INDEX 00 06:49:52FILE "06. Jordu.flac" WAVE INDEX 01 00:00:00 TRACK 07 AUDIO TITLE "What Am I Here For?" INDEX 00 04:00:43FILE "07. What Am I Here For.flac" WAVE INDEX 01 00:00:00
 
[CUETools log; Date: 09.01.2012 20:54:08; Version: 2.0.9]Pregap length 00:00:32.[CTDB TOCID: jKI2P2fX95M130gY_MuMfjxwCVY-] disk not present in database.[AccurateRip ID: 000c8b9d-00491986-68097307] found.Track [ CRC ] Status 01 [5f759ec4] (6/8) Accurately ripped 02 [5f6cafec] (6/8) Accurately ripped 03 [96d4485a] (6/8) Accurately ripped 04 [e1f848a7] (6/8) Accurately ripped 05 [ed8830b6] (6/8) Accurately ripped 06 [182e02f9] (5/7) Accurately ripped 07 [1c82f830] (7/9) Accurately ripped

Track Peak [ CRC32 ] [W/O NULL] -- 100,0 [24651984] [CAF5EB7C] 01 96,4 [B91A1E0D] [F5D6BD19] 02 100,0 [9D3C238E] [F1765F79] 03 93,6 [F0F9CDB9] [45CE1E09] 04 93,2 [7FD60BD0] [2551D230] 05 91,9 [218EFD14] [2F7BBD85] 06 100,0 [B661D918] [B7C61D80] 07 71,8 [6B4CFDF4] [9BDA98E7]


Трекер:  [ 28-Янв-2012 15:10 ]

  

Скачать .torrent

Размер .torrent файла 15 KB


Размер: 179 MB
Хэш (hash) релиза: 09d005db2b4ff03364aada7aedb66a2176951811

Еще никто не оставлял запись к записи скачать торрент Clifford Brown, Max Roach - Clifford Brown And Max Roach - 1955, FLAC . Будь первым!

!Обратная связь