Скачать через торрент музыку Hampton Hawes - At The Piano - 1976 бесплатно без регистрации torrent

Если у вас наблюдаются проблемы со скриншотами, переходом по ссылками, скачиванием торрентов - проблемы в блокировщике рекламы AdBlock. #хорошегоДня!


Статистика раздачи
Размер:  201 MB   |    Зарегистрирован:  5 лет 8 месяцев   |    .torrent скачан:  28 раз   |   
Раздают:  1  
   
Загрузка...
 
Автор Сообщение

Umakiro

avatar Umakiro


Hampton Hawes - At The Piano

Жанр: Hard Bop
Год выпуска диска: 1976
Производитель диска: USA
Аудио кодек: FLAC
Тип рипа: image+.cue
Битрейт аудио: lossless
Продолжительность: 39:08
Трэклист:
[06:07] 01. Killing Me Softly With His Song
[08:15] 02. Soul Sign Eight
[05:04] 03. Sunny
[07:32] 04. Morning
[05:30] 05. Blue In Green
[06:42] 06. When I Grow Too Old To Dream

Состав:
Hampton Hawes - piano
Ray Brown - bass
Shelly Manne - drums

Рип от mfrwiz.
 
Exact Audio Copy V0.99 prebeta 4 from 23. January 2008

EAC extraction logfile from 23. March 2009, 19:33

Hampton Hawes / At The Piano

Used drive : TSSTcorpSE-S204N Adapter: 7 ID: 6

Read mode : SecureUtilize accurate stream : YesDefeat audio cache : YesMake use of C2 pointers : No

Read offset correction : 6Overread into Lead-In and Lead-Out : NoFill up missing offset samples with silence : YesDelete leading and trailing silent blocks : NoNull samples used in CRC calculations : YesUsed interface : Native Win32 interface for Win NT & 2000

Used output format : User Defined EncoderSelected bitrate : 128 kBit/sQuality : HighAdd ID3 tag : NoCommand line compressor : C:\Programmi\Exact Audio Copy\FLAC\FLAC.EXEAdditional command line options : -5 -V -T "ARTIST=%a" -T "TITLE=%t" -T "ALBUM=%g" -T "DATE=%y" -T "TRACKNUMBER=%n" -T "GENRE=%m" -T "COMMENT=%e" %s -o %d

TOC of the extracted CD

Track | Start | Length | Start sector | End sector --------------------------------------------------------- 1 | 0:00.00 | 6:07.22 | 0 | 27546 2 | 6:07.22 | 8:15.39 | 27547 | 64710 3 | 14:22.61 | 5:03.25 | 64711 | 87460 4 | 19:26.11 | 7:32.44 | 87461 | 121404 5 | 26:58.55 | 5:29.24 | 121405 | 146103 6 | 32:28.04 | 6:42.43 | 146104 | 176296

Range status and errors

Selected range

Filename H:\Da Masterizzare o Uploadare\-=AVAX\-=22-03-09\Hampton Hawes - At The Piano\Hampton Hawes - At The Piano.wav

Peak level 100.0 % Range quality 100.0 % Copy CRC 23942884 Copy OK

No errors occurred

End of status report
 
AUDIOCHECKER v2.0 beta (build 457) - by Dester - opdester@freemail.hu~~~~~~~~~~~~~~~~~~~~~~~~~~~~~~~~~~-=== DO NOT EDIT THIS FILE! ===-

Path: ...\Hampton Hawes - At The Piano

1 -=- Hampton Hawes - At The Piano.flac -=- CDDA (99%)

154346836
Предпоследний альбом Хэйвса, вышедший при жизни исполнителя. Заглавный трек просто обалденный! Приятных впечатлений!

Трекер:  [ 28-Янв-2012 15:09 ]

  

Скачать .torrent

Размер .torrent файла 16 KB


Размер: 201 MB
Хэш (hash) релиза: 1fad4a08b82584353c0d7504159e326e0e98fcbd

Еще никто не оставлял запись к записи скачать торрент Hampton Hawes - At The Piano - 1976 . Будь первым!

!Обратная связь