Скачать через торрент музыку Lou Donaldson - Caracas - 1994, FLAC бесплатно без регистрации torrent

Если у вас наблюдаются проблемы со скриншотами, переходом по ссылками, скачиванием торрентов - проблемы в блокировщике рекламы AdBlock. #хорошегоДня!


Статистика раздачи
Размер:  334 MB   |    Зарегистрирован:  5 лет 8 месяцев   |    .torrent скачан:  34 раза   |   
Раздают:  1  
   
Загрузка...
 
Автор Сообщение

Umakiro

avatar Umakiro


Lou Donaldson - Caracas
Жанр: Hard Bop / Soul Jazz
Год выпуска диска: 1994
Производитель диска: Milestone 025218921725
Аудио кодек: FLAC
Тип рипа: tracks+.cue
Битрейт аудио: lossless
Продолжительность: 0:54:31
Трэклист:
01. Hot Dog (5:18)
02. Just A Dream (On My Mind) (6:23)
03. Ornithology (7:08)
04. I Don't Know Why (I Just Do) (5:00)
05. Night Train (9:51)
06. I Be Blue (5:58)
07. Caracas (7:35)
08. Li'l Darlin' (7:17)

Lou Donaldson (alto saxophone)
Dr. Lonnie Smith (organ)
Peter Bernstein (guitar)
Kenny Washington (drums)
Ralph Dorsey (congas)

Recorded at Nola Studios, NY City; July 12 & 13, 1993

За релиз спасибо scofield
 
Exact Audio Copy V0.99 prebeta 5 from 4. May 2009

EAC extraction logfile from 20. March 2010, 23:21

Lou Donaldson / Caracas

Used drive : PLEXTOR CD-R PREMIUM2 Adapter: 1 ID: 1

Read mode : SecureUtilize accurate stream : YesDefeat audio cache : YesMake use of C2 pointers : No

Read offset correction : 30Overread into Lead-In and Lead-Out : YesFill up missing offset samples with silence : YesDelete leading and trailing silent blocks : NoNull samples used in CRC calculations : YesUsed interface : Installed external ASPI interfaceGap handling : Appended to previous track

Used output format : User Defined EncoderSelected bitrate : 32 kBit/sQuality : HighAdd ID3 tag : NoCommand line compressor : C:\Programmi\FLAC\flac.exeAdditional command line options : -8 -V -T "ARTIST=%a" -T "TITLE=%t" -T "ALBUM=%g" -T "DATE=%y" -T "TRACKNUMBER=%n" -T "GENRE=%m" -T "COMMENT=EAC FLAC -8" %s

TOC of the extracted CD

Track | Start | Length | Start sector | End sector --------------------------------------------------------- 1 | 0:00.00 | 5:18.33 | 0 | 23882 2 | 5:18.33 | 6:22.62 | 23883 | 52594 3 | 11:41.20 | 7:08.35 | 52595 | 84729 4 | 18:49.55 | 5:00.33 | 84730 | 107262 5 | 23:50.13 | 9:51.22 | 107263 | 151609 6 | 33:41.35 | 5:57.55 | 151610 | 178439 7 | 39:39.15 | 7:34.63 | 178440 | 212552 8 | 47:14.03 | 7:17.02 | 212553 | 245329

Track 1

Filename D:\My Rip\01 - Hot Dog.wav

Pre-gap length 0:00:02.00

Peak level 100.0 % Track quality 99.9 % Test CRC 0EEE595F Copy CRC 0EEE595F Cannot be verified as accurate (confidence 2) [B312D4AD], AccurateRip returned [8F09EE95] Copy OK

Track 2

Filename D:\My Rip\02 - Just A Dream (On My Mind).wav

Pre-gap length 0:00:02.06

Peak level 100.0 % Track quality 100.0 % Test CRC 62FEB753 Copy CRC 62FEB753 Cannot be verified as accurate (confidence 2) [F3F9224B], AccurateRip returned [D5C6F373] Copy OK

Track 3

Filename D:\My Rip\03 - Ornithology.wav

Pre-gap length 0:00:02.46

Peak level 100.0 % Track quality 100.0 % Test CRC 7FAB7AC7 Copy CRC 7FAB7AC7 Cannot be verified as accurate (confidence 2) [E1B2561E], AccurateRip returned [ACE3633E] Copy OK

Track 4

Filename D:\My Rip\04 - I Don't Know Why (I Just Do).wav

Pre-gap length 0:00:00.33

Peak level 100.0 % Track quality 100.0 % Test CRC AB8BEE96 Copy CRC AB8BEE96 Cannot be verified as accurate (confidence 2) [F3D4A0F2], AccurateRip returned [1A3CA2E2] Copy OK

Track 5

Filename D:\My Rip\05 - Night Train.wav

Pre-gap length 0:00:01.60

Peak level 100.0 % Track quality 100.0 % Test CRC 5B9E07AA Copy CRC 5B9E07AA Cannot be verified as accurate (confidence 2) [55634BB8], AccurateRip returned [80D7BE20] Copy OK

Track 6

Filename D:\My Rip\06 - I Be Blue.wav

Pre-gap length 0:00:01.42

Peak level 100.0 % Track quality 100.0 % Test CRC 221B9C29 Copy CRC 221B9C29 Cannot be verified as accurate (confidence 2) [421610B6], AccurateRip returned [0F08BF5E] Copy OK

Track 7

Filename D:\My Rip\07 - Caracas.wav

Pre-gap length 0:00:01.22

Peak level 100.0 % Track quality 100.0 % Test CRC C79BA536 Copy CRC C79BA536 Cannot be verified as accurate (confidence 2) [24D21F0C], AccurateRip returned [6412B09C] Copy OK

Track 8

Filename D:\My Rip\08 - Li'l Darlin'.wav

Pre-gap length 0:00:01.73

Peak level 100.0 % Track quality 100.0 % Test CRC 7DFFC703 Copy CRC 7DFFC703 Cannot be verified as accurate (confidence 2) [EC667285], AccurateRip returned [F6B0E71D] Copy OK

No tracks could be verified as accurateYou may have a different pressing from the one(s) in the database

No errors occurred

End of status report
 
REM GENRE JazzREM DATE 1994REM DISCID 490CC708REM COMMENT "ExactAudioCopy v0.99pb5"PERFORMER "Lou Donaldson"TITLE "Caracas"FILE "01 - Hot Dog.wav" WAVE TRACK 01 AUDIO TITLE "Hot Dog" PERFORMER "Lou Donaldson" INDEX 01 00:00:00 TRACK 02 AUDIO TITLE "Just A Dream (On My Mind)" PERFORMER "Lou Donaldson" INDEX 00 05:16:28FILE "02 - Just A Dream (On My Mind).wav" WAVE INDEX 01 00:00:00 TRACK 03 AUDIO TITLE "Ornithology" PERFORMER "Lou Donaldson" INDEX 00 06:20:27FILE "03 - Ornithology.wav" WAVE INDEX 01 00:00:00 TRACK 04 AUDIO TITLE "I Don't Know Why (I Just Do)" PERFORMER "Lou Donaldson" INDEX 00 07:08:10FILE "04 - I Don't Know Why (I Just Do).wav" WAVE INDEX 01 00:00:00 TRACK 05 AUDIO TITLE "Night Train" PERFORMER "Lou Donaldson" INDEX 00 04:58:63FILE "05 - Night Train.wav" WAVE INDEX 01 00:00:00 TRACK 06 AUDIO TITLE "I Be Blue" PERFORMER "Lou Donaldson" INDEX 00 09:49:65FILE "06 - I Be Blue.wav" WAVE INDEX 01 00:00:00 TRACK 07 AUDIO TITLE "Caracas" PERFORMER "Lou Donaldson" INDEX 00 05:56:38FILE "07 - Caracas.wav" WAVE INDEX 01 00:00:00 TRACK 08 AUDIO TITLE "Li'l Darlin'" PERFORMER "Lou Donaldson" INDEX 00 07:33:08FILE "08 - Li'l Darlin'.wav" WAVE INDEX 01 00:00:00


Трекер:  [ 28-Янв-2012 15:08 ]

  

Скачать .torrent

Размер .torrent файла 14 KB


Размер: 334 MB
Хэш (hash) релиза: 954555a274996a4fe2e2789bd65fa10cbaa19f4e

Еще никто не оставлял запись к записи скачать торрент Lou Donaldson - Caracas - 1994, FLAC . Будь первым!

!Обратная связь