Скачать через торрент музыку Ryan Kisor - Power Source - 2001, FLAC бесплатно без регистрации torrent

Если у вас наблюдаются проблемы со скриншотами, переходом по ссылками, скачиванием торрентов - проблемы в блокировщике рекламы AdBlock. #хорошегоДня!


Статистика раздачи
Размер:  326 MB   |    Зарегистрирован:  5 лет 8 месяцев   |    .torrent скачан:  28 раз   |   
Раздают:  1  
   
Загрузка...
 
Автор Сообщение

Umakiro

avatar Umakiro


Ryan Kisor - Power Source

Жанр: Post-Bop, Straight-Ahead Jazz
Страна-производитель диска: Holland
Год издания диска: 2001
Издатель (лейбл): Criss Cross Jazz
Номер по каталогу: 1196 CD
Страна: USA Sioux City, IA
Аудиокодек: FLAC (*.flac)
Тип рипа: tracks+.cue
Битрейт аудио: lossless
Продолжительность: 00:54:02
Источник (релизер): mishka1981
Наличие сканов в содержимом раздачи: да
01. Power Source [06:17]
02. Salome's Dance [11:56]
03. Duke Ellington's Sound of Love [08:27]
04. New Picture [07:26]
05. Boogie Stop Shuffle [06:11]
06. Pelog [06:03]
07. Bird Food [07:38]
Recorded June 11, 1999 in Brooklyn, NY, USA by Max Bolleman
 
Exact Audio Copy V1.0 beta 1 from 15. November 2010

EAC extraction logfile from 24. January 2012, 13:16

Ryan Kisor / Power Source

Used drive : Optiarc DVD RW AD-7710H Adapter: 1 ID: 0

Read mode : SecureUtilize accurate stream : YesDefeat audio cache : YesMake use of C2 pointers : No

Read offset correction : 48Overread into Lead-In and Lead-Out : NoFill up missing offset samples with silence : YesDelete leading and trailing silent blocks : NoNull samples used in CRC calculations : YesUsed interface : Native Win32 interface for Win NT & 2000Gap handling : Appended to previous track

Used output format : User Defined EncoderSelected bitrate : 896 kBit/sQuality : HighAdd ID3 tag : NoCommand line compressor : C:\Program Files\Exact Audio Copy\FLAC\FLAC.EXEAdditional command line options : -8 -V -T "ARTIST=%a" -T "TITLE=%t" -T "ALBUM=%g" -T "DATE=%y" -T "TRACKNUMBER=%n" -T "GENRE=%m" -T "COMMENT=%e" %j--picture="%i"%j %s -o %d

TOC of the extracted CD

Track | Start | Length | Start sector | End sector --------------------------------------------------------- 1 | 0:00.00 | 6:21.11 | 0 | 28585 2 | 6:21.11 | 12:00.62 | 28586 | 82647 3 | 18:21.73 | 8:31.53 | 82648 | 121025 4 | 26:53.51 | 7:30.54 | 121026 | 154829 5 | 34:24.30 | 6:15.32 | 154830 | 182986 6 | 40:39.62 | 6:07.08 | 182987 | 210519 7 | 46:46.70 | 7:38.40 | 210520 | 244909

Track 1

Filename C:\MY RIPS\01 - Power Source.wav

Pre-gap length 0:00:02.00

Peak level 100.0 % Extraction speed 3.1 X Track quality 100.0 % Test CRC FCE44721 Copy CRC FCE44721 Accurately ripped (confidence 1) [EBA0B44B] Copy OK

Track 2

Filename C:\MY RIPS\02 - Salome's Dance.wav

Pre-gap length 0:00:03.63

Peak level 100.0 % Extraction speed 3.9 X Track quality 100.0 % Test CRC 104CA414 Copy CRC 104CA414 Accurately ripped (confidence 1) [8EEBD0D6] Copy OK

Track 3

Filename C:\MY RIPS\03 - Duke Ellington's Sound of Love.wav

Pre-gap length 0:00:03.63

Peak level 100.0 % Extraction speed 4.0 X Track quality 99.9 % Test CRC 8E511C15 Copy CRC 8E511C15 Accurately ripped (confidence 1) [F316A308] Copy OK

Track 4

Filename C:\MY RIPS\04 - New Picture.wav

Pre-gap length 0:00:03.63

Peak level 100.0 % Extraction speed 4.8 X Track quality 100.0 % Test CRC 0DA0194E Copy CRC 0DA0194E Accurately ripped (confidence 1) [5CA7470D] Copy OK

Track 5

Filename C:\MY RIPS\05 - Boogie Stop Shuffle.wav

Pre-gap length 0:00:03.63

Peak level 100.0 % Extraction speed 5.1 X Track quality 100.0 % Test CRC A88A38B0 Copy CRC A88A38B0 Accurately ripped (confidence 1) [C0E4C5CB] Copy OK

Track 6

Filename C:\MY RIPS\06 - Pelog.wav

Pre-gap length 0:00:03.63

Peak level 100.0 % Extraction speed 5.3 X Track quality 100.0 % Test CRC 4CC5AE9F Copy CRC 4CC5AE9F Accurately ripped (confidence 1) [6ECF9568] Copy OK

Track 7

Filename C:\MY RIPS\07 - Bird Food.wav

Pre-gap length 0:00:03.63

Peak level 100.0 % Extraction speed 5.7 X Track quality 100.0 % Test CRC F66AB344 Copy CRC F66AB344 Accurately ripped (confidence 1) [AE318917] Copy OK

All tracks accurately ripped

No errors occurred

End of status report

==== Log checksum 831978FB04122F26D3BEE152C149D4DEC899BDF093D8BA94DB5E64931AD0C192 ====
 
REM GENRE JazzREM DATE 2001REM DISCID 4D0CC107REM COMMENT "ExactAudioCopy v1.0b1"PERFORMER "Ryan Kisor"TITLE "Power Source"FILE "01 - Power Source.wav" WAVE TRACK 01 AUDIO TITLE "Power Source" PERFORMER "Ryan Kisor" INDEX 01 00:00:00 TRACK 02 AUDIO TITLE "Salome's Dance" PERFORMER "Ryan Kisor" INDEX 00 06:17:23FILE "02 - Salome's Dance.wav" WAVE INDEX 01 00:00:00 TRACK 03 AUDIO TITLE "Duke Ellington's Sound of Love" PERFORMER "Ryan Kisor" INDEX 00 11:56:74FILE "03 - Duke Ellington's Sound of Love.wav" WAVE INDEX 01 00:00:00 TRACK 04 AUDIO TITLE "New Picture" PERFORMER "Ryan Kisor" INDEX 00 08:27:65FILE "04 - New Picture.wav" WAVE INDEX 01 00:00:00 TRACK 05 AUDIO TITLE "Boogie Stop Shuffle" PERFORMER "Ryan Kisor" INDEX 00 07:26:66FILE "05 - Boogie Stop Shuffle.wav" WAVE INDEX 01 00:00:00 TRACK 06 AUDIO TITLE "Pelog" PERFORMER "Ryan Kisor" INDEX 00 06:11:44FILE "06 - Pelog.wav" WAVE INDEX 01 00:00:00 TRACK 07 AUDIO TITLE "Bird Food" PERFORMER "Ryan Kisor" INDEX 00 06:03:20FILE "07 - Bird Food.wav" WAVE INDEX 01 00:00:00
Ryan Kisor Quartet:
Ryan Kisor (trumpet)
Chris Potter (tenor saxophone)
James Genus (bass)
Gene Jackson (drums)


Трекер:  [ 28-Янв-2012 15:08 ]

  

Скачать .torrent

Размер .torrent файла 14 KB


Размер: 326 MB
Хэш (hash) релиза: ce70d3edc33a0f597ece42be8a0eb71b831d1556

Еще никто не оставлял запись к записи скачать торрент Ryan Kisor - Power Source - 2001, FLAC . Будь первым!

!Обратная связь