Скачать через торрент музыку Eric Watson Trio - Jaded Angels - 2006, FLAC бесплатно без регистрации torrent

Если у вас наблюдаются проблемы со скриншотами, переходом по ссылками, скачиванием торрентов - проблемы в блокировщике рекламы AdBlock. #хорошегоДня!


Статистика раздачи
Размер:  317 MB   |    Зарегистрирован:  5 лет 8 месяцев   |    .torrent скачан:  34 раза   |   
Раздают:  1  
   
Загрузка...
 
Автор Сообщение

Umakiro

avatar Umakiro


Eric Watson Trio - Jaded Angels

Жанр: Modern Creative / Neo-Bop
Год выпуска диска: 2006
Производитель диска: ACT Music [Germany]
Аудио кодек: FLAC
Тип рипа: image+.cue
Битрейт аудио: lossless
Продолжительность: 51:34
Источник: оригинальный диск [ACT 9452-2]

Трэклист:

1 Jaded Angels 7:56
2 Ghosts on the Wall 6:09
3 Fallen Angels 6:45
4 Ice Lady 7:33
5 Dice in the Sky 10:17
6 Consolation 4:32
7 House of Mirror 8:18

Доп. информация:

Eric Watson - piano
Peter Herbert - double bass
Christophe Marguet - drums
Exact Audio Copy V0.99 prebeta 4 from 23. January 2008

EAC extraction logfile from 2. June 2010, 2:49

Eric Watson / Jaded Angels

Used drive : ASUS DRW-2014S1T Adapter: 0 ID: 1

Read mode : Secure
Utilize accurate stream : Yes
Defeat audio cache : Yes
Make use of C2 pointers : No

Read offset correction : 6
Overread into Lead-In and Lead-Out : No
Fill up missing offset samples with silence : Yes
Delete leading and trailing silent blocks : No
Null samples used in CRC calculations : Yes
Used interface : Native Win32 interface for Win NT & 2000

Used output format : Internal WAV Routines
Sample format : 44.100 Hz; 16 Bit; Stereo

TOC of the extracted CD

Track | Start | Length | Start sector | End sector
---------------------------------------------------------
1 | 0:00.00 | 7:56.45 | 0 | 35744
2 | 7:56.45 | 6:09.46 | 35745 | 63465
3 | 14:06.16 | 6:45.02 | 63466 | 93842
4 | 20:51.18 | 7:33.53 | 93843 | 127870
5 | 28:24.71 | 10:17.73 | 127871 | 174218
6 | 38:42.69 | 4:32.71 | 174219 | 194689
7 | 43:15.65 | 8:18.17 | 194690 | 232056

Range status and errors

Selected range

Filename D:\!mTorrent razdachi\Eric Watson Trio_Jaded Angels\Eric Watson - Jaded Angels.wav

Peak level 98.5 %
Range quality 100.0 %
Test CRC 323BC134
Copy CRC 323BC134
Copy OK

No errors occurred

End of status report


Трекер:  [ 28-Янв-2012 15:07 ]

  

Скачать .torrent

Размер .torrent файла 13 KB


Размер: 317 MB
Хэш (hash) релиза: 2a26e23c21490eed2123b2609448b6306af5d91c

Еще никто не оставлял запись к записи скачать торрент Eric Watson Trio - Jaded Angels - 2006, FLAC . Будь первым!

!Обратная связь