Скачать через торрент музыку Cyminology - Saburi - 2011, FLAC бесплатно без регистрации torrent

Если у вас наблюдаются проблемы со скриншотами, переходом по ссылками, скачиванием торрентов - проблемы в блокировщике рекламы AdBlock. #хорошегоДня!


Статистика раздачи
Размер:  407 MB   |    Зарегистрирован:  5 лет 8 месяцев   |    .torrent скачан:  34 раза   |   
Раздают:  1  
   
Загрузка...
 
Автор Сообщение

Umakiro

avatar Umakiro


Cyminology - Saburi

Жанр: Contemporary Jazz, Neo-Classical
Страна-производитель диска: Germany
Год издания диска: 2011
Издатель (лейбл): ECM
Номер по каталогу: 2164
Аудиокодек: FLAC (*.flac)
Тип рипа: tracks+.cue
Битрейт аудио: lossless
Продолжительность: 00:51:03
Источник (релизер): сеть
Наличие сканов в содержимом раздачи: да
01. Sibaai [05:26]
02. Saburi [05:31]
03. Shakibaai [05:01]
04. Norma [06:23]
05. As Maa [08:55]
06. Nemibinam [05:46]
07. Hedije [06:47]
08. Hawaa [07:11]
 
Exact Audio Copy V1.0 beta 2 from 29. April 2011

EAC extraction logfile from 19. November 2011, 1:23

Cyminology / Saburi

Used drive : PLEXTOR DVDR PX-L890SA Adapter: 2 ID: 1

Read mode : SecureUtilize accurate stream : YesDefeat audio cache : YesMake use of C2 pointers : No

Read offset correction : 6Overread into Lead-In and Lead-Out : NoFill up missing offset samples with silence : YesDelete leading and trailing silent blocks : NoNull samples used in CRC calculations : YesUsed interface : Native Win32 interface for Win NT & 2000Gap handling : Appended to previous track

Used output format : User Defined EncoderSelected bitrate : 256 kBit/sQuality : HighAdd ID3 tag : NoCommand line compressor : C:\Program Files (x86)\Exact Audio Copy\FLAC\FLAC.EXEAdditional command line options : -8 -V -T "ARTIST=%artist%" -T "TITLE=%title%" -T "ALBUM=%albumtitle%" -T "DATE=%year%" -T "TRACKNUMBER=%tracknr%" -T "TOTALTRACKS=%numtracks%" -T "GENRE=%genre%" -T "ALBUMARTIST=%albumartist%" -T "ALBUM ARTIST=%albumartist%

TOC of the extracted CD

Track | Start | Length | Start sector | End sector --------------------------------------------------------- 1 | 0:00.00 | 5:26.62 | 0 | 24511 2 | 5:26.62 | 5:31.02 | 24512 | 49338 3 | 10:57.64 | 5:01.10 | 49339 | 71923 4 | 15:58.74 | 6:23.38 | 71924 | 100686 5 | 22:22.37 | 8:55.29 | 100687 | 140840 6 | 31:17.66 | 5:46.73 | 140841 | 166863 7 | 37:04.64 | 6:47.14 | 166864 | 197402 8 | 43:52.03 | 7:11.33 | 197403 | 229760

Track 1

Filename F:\Flac Rips\01 - Sibaai.wav

Pre-gap length 0:00:02.00

Peak level 98.8 % Extraction speed 3.7 X Track quality 100.0 % Test CRC F1F53B8A Copy CRC F1F53B8A Accurately ripped (confidence 4) [F45E094A] (AR v2) Copy OK

Track 2

Filename F:\Flac Rips\02 - Saburi.wav

Pre-gap length 0:00:03.42

Peak level 99.9 % Extraction speed 3.6 X Track quality 99.9 % Test CRC BD6B225C Copy CRC BD6B225C Accurately ripped (confidence 4) [DF8DCA4C] (AR v2) Copy OK

Track 3

Filename F:\Flac Rips\03 - Shakibaai.wav

Pre-gap length 0:00:02.62

Peak level 98.0 % Extraction speed 3.8 X Track quality 99.9 % Test CRC CEF2442E Copy CRC CEF2442E Accurately ripped (confidence 4) [910D6185] (AR v2) Copy OK

Track 4

Filename F:\Flac Rips\04 - Norma.wav

Pre-gap length 0:00:03.30

Peak level 98.7 % Extraction speed 5.2 X Track quality 100.0 % Test CRC 8B0CE1E4 Copy CRC 8B0CE1E4 Accurately ripped (confidence 4) [E04DE0C3] (AR v2) Copy OK

Track 5

Filename F:\Flac Rips\05 - As Maa.wav

Pre-gap length 0:00:02.66

Peak level 98.2 % Extraction speed 5.9 X Track quality 100.0 % Test CRC 0DEFB2BB Copy CRC 0DEFB2BB Accurately ripped (confidence 4) [8A456BAD] (AR v2) Copy OK

Track 6

Filename F:\Flac Rips\06 - Nemibinam.wav

Pre-gap length 0:00:03.63

Peak level 98.5 % Extraction speed 6.1 X Track quality 100.0 % Test CRC 67C97D69 Copy CRC 67C97D69 Accurately ripped (confidence 4) [C1D9CAD2] (AR v2) Copy OK

Track 7

Filename F:\Flac Rips\07 - Hedije.wav

Pre-gap length 0:00:04.67

Peak level 99.2 % Extraction speed 6.6 X Track quality 100.0 % Test CRC 4C40927F Copy CRC 4C40927F Accurately ripped (confidence 4) [96BEE21E] (AR v2) Copy OK

Track 8

Filename F:\Flac Rips\08 - Hawaa.wav

Pre-gap length 0:00:03.45

Peak level 98.5 % Extraction speed 7.1 X Track quality 100.0 % Test CRC 7389F027 Copy CRC 7389F027 Accurately ripped (confidence 4) [0099C8BD] (AR v2) Copy OK

All tracks accurately ripped

No errors occurred

End of status report

==== Log checksum F179261FC440CF57AB4F593AB20889758A8BAE9AF5ECE940D25DB0045C383C89 ====
 
REM GENRE JazzREM DATE 2011REM DISCID 720BF708REM COMMENT "ExactAudioCopy v1.0b2"PERFORMER "Cyminology"TITLE "Saburi"FILE "01 - Sibaai.wav" WAVE TRACK 01 AUDIO TITLE "Sibaai" PERFORMER "Cyminology" INDEX 01 00:00:00 TRACK 02 AUDIO TITLE "Saburi" PERFORMER "Cyminology" INDEX 00 05:23:20FILE "02 - Saburi.wav" WAVE INDEX 01 00:00:00 TRACK 03 AUDIO TITLE "Shakibaai" PERFORMER "Cyminology" INDEX 00 05:28:15FILE "03 - Shakibaai.wav" WAVE INDEX 01 00:00:00 TRACK 04 AUDIO TITLE "Norma" PERFORMER "Cyminology" INDEX 00 04:57:55FILE "04 - Norma.wav" WAVE INDEX 01 00:00:00 TRACK 05 AUDIO TITLE "As Maa" PERFORMER "Cyminology" INDEX 00 06:20:47FILE "05 - As Maa.wav" WAVE INDEX 01 00:00:00 TRACK 06 AUDIO TITLE "Nemibinam" PERFORMER "Cyminology" INDEX 00 08:51:41FILE "06 - Nemibinam.wav" WAVE INDEX 01 00:00:00 TRACK 07 AUDIO TITLE "Hedije" PERFORMER "Cyminology" INDEX 00 05:42:06FILE "07 - Hedije.wav" WAVE INDEX 01 00:00:00 TRACK 08 AUDIO TITLE "Hawaa" PERFORMER "Cyminology" INDEX 00 06:43:44FILE "08 - Hawaa.wav" WAVE INDEX 01 00:00:00
Cymin Samawatie - vocals
Benedikt Jahnel - piano
Ralf Schwarz - double-bass
Ketan Bhatti - drums, percussion


Трекер:  [ 28-Янв-2012 15:06 ]

  

Скачать .torrent

Размер .torrent файла 17 KB


Размер: 407 MB
Хэш (hash) релиза: 9e5f101c8d55d8aed53fa5223fe38d4582f66b75

Еще никто не оставлял запись к записи скачать торрент Cyminology - Saburi - 2011, FLAC . Будь первым!

!Обратная связь