Скачать через торрент музыку Tigran Hamasyan - A Fable - 2011, FLAC бесплатно без регистрации torrent

Если у вас наблюдаются проблемы со скриншотами, переходом по ссылками, скачиванием торрентов - проблемы в блокировщике рекламы AdBlock. #хорошегоДня!


Статистика раздачи
Размер:  208 MB   |    Зарегистрирован:  5 лет 8 месяцев   |    .torrent скачан:  33 раза   |   
Раздают:  1  
   
Загрузка...
 
Автор Сообщение

Umakiro

avatar Umakiro


Tigran Hamasyan - A Fable
Жанр: Jazz|Post-Bop|Piano Jazz
Год выпуска диска: February 15, 2011
Год записи альбома: last 6 years
Производитель диска: EU|Verve, 2760686
Аудио кодек: Flac
Тип рипа: tracks +.cue
Битрейт аудио: lossless
Продолжительность: 51:36
Источник (релизер): ftp
Сканы: нет
Трэклист:

1. Rain Shadow
2. What The Waves Brought
3. The Spinners
4. Illusion
5. Samsara
6. Longing
7. Carnaval
8. The Legend Of The Moon
9. Someday My Prince Will Come
10. Kakavik (The Little Partridge)
11. A Memory That Became A Dream
12. A Fable
13. Mother, Where Are You?



Доп. информация:
Tigran Hamasyan - piano, vocals
 
X Lossless Decoder version 20110228 (129.0)

XLD extraction logfile from 2011-03-03 12:16:53 +0000

Tigran Hamasyan / A Fable

Used drive : Optiarc DVD RW AD-5240S (revision 1.03)

Ripper mode : CDParanoia III 10.2Disable audio cache : OK for the drive with a cache less than 2750KiBMake use of C2 pointers : NORead offset correction : 48Max retry count : 100Gap status : Analyzed, Appended

TOC of the extracted CD Track | Start | Length | Start sector | End sector --------------------------------------------------------- 1 | 00:00:00 | 01:36:23 | 0 | 7222 2 | 01:36:23 | 06:32:10 | 7223 | 36632 3 | 08:08:33 | 03:00:07 | 36633 | 50139 4 | 11:08:40 | 01:31:04 | 50140 | 56968 5 | 12:39:44 | 05:36:15 | 56969 | 82183 6 | 18:15:59 | 05:07:66 | 82184 | 105274 7 | 23:23:50 | 02:46:73 | 105275 | 117797 8 | 26:10:48 | 05:33:60 | 117798 | 142832 9 | 31:44:33 | 03:41:37 | 142833 | 159444 10 | 35:25:70 | 05:57:05 | 159445 | 186224 11 | 41:23:00 | 02:40:19 | 186225 | 198243 12 | 44:03:19 | 05:07:58 | 198244 | 221326 13 | 49:11:02 | 02:25:35 | 221327 | 232236

AccurateRip Summary Disc not found in AccurateRip DB.

All Tracks Album gain : -2.75 dB Peak : 0.973511 Statistics Read error : 0 Skipped (treated as error) : 0 Edge jitter error (maybe fixed) : 0 Atom jitter error (maybe fixed) : 0 Drift error (maybe fixed) : 0 Dropped bytes error (maybe fixed) : 0 Duplicated bytes error (maybe fixed) : 0

Track 01 Filename : /Volumes/HFS1/XLD Conversions/Tigran Hamasyan - A Fable (2011) [FLAC]/01 Rain Shadow.flac Pre-gap length : 00:02:00

Track gain : 3.51 dB Peak : 0.544647 CRC32 hash (test run) : 562D0B9B CRC32 hash : 562D0B9B CRC32 hash (skip zero) : CBF01D98 AccurateRip signature : A67A5AA5 ->Track not present in AccurateRip database. Statistics Read error : 0 Skipped (treated as error) : 0 Edge jitter error (maybe fixed) : 0 Atom jitter error (maybe fixed) : 0 Drift error (maybe fixed) : 0 Dropped bytes error (maybe fixed) : 0 Duplicated bytes error (maybe fixed) : 0 Inconsistency in error sectors : 0

Track 02 Filename : /Volumes/HFS1/XLD Conversions/Tigran Hamasyan - A Fable (2011) [FLAC]/02 What The Waves Brought.flac

Track gain : -2.84 dB Peak : 0.918793 CRC32 hash (test run) : C7B620E2 CRC32 hash : C7B620E2 CRC32 hash (skip zero) : A9AF1CE0 AccurateRip signature : 5BD2E428 ->Track not present in AccurateRip database. Statistics Read error : 0 Skipped (treated as error) : 0 Edge jitter error (maybe fixed) : 0 Atom jitter error (maybe fixed) : 0 Drift error (maybe fixed) : 0 Dropped bytes error (maybe fixed) : 0 Duplicated bytes error (maybe fixed) : 0 Inconsistency in error sectors : 0

Track 03 Filename : /Volumes/HFS1/XLD Conversions/Tigran Hamasyan - A Fable (2011) [FLAC]/03 The Spinners.flac Pre-gap length : 00:02:52

Track gain : -5.57 dB Peak : 0.973358 CRC32 hash (test run) : 82BEA3DE CRC32 hash : 82BEA3DE CRC32 hash (skip zero) : B8A2BDD8 AccurateRip signature : 481F20AB ->Track not present in AccurateRip database. Statistics Read error : 0 Skipped (treated as error) : 0 Edge jitter error (maybe fixed) : 0 Atom jitter error (maybe fixed) : 0 Drift error (maybe fixed) : 0 Dropped bytes error (maybe fixed) : 0 Duplicated bytes error (maybe fixed) : 0 Inconsistency in error sectors : 0

Track 04 Filename : /Volumes/HFS1/XLD Conversions/Tigran Hamasyan - A Fable (2011) [FLAC]/04 Illusion.flac Pre-gap length : 00:02:29

Track gain : 2.17 dB Peak : 0.629913 CRC32 hash (test run) : 9F1F02CD CRC32 hash : 9F1F02CD CRC32 hash (skip zero) : 7D362A05 AccurateRip signature : 0CC8FDC9 ->Track not present in AccurateRip database. Statistics Read error : 0 Skipped (treated as error) : 0 Edge jitter error (maybe fixed) : 0 Atom jitter error (maybe fixed) : 0 Drift error (maybe fixed) : 0 Dropped bytes error (maybe fixed) : 0 Duplicated bytes error (maybe fixed) : 0 Inconsistency in error sectors : 0

Track 05 Filename : /Volumes/HFS1/XLD Conversions/Tigran Hamasyan - A Fable (2011) [FLAC]/05 Samsara.flac

Track gain : -2.14 dB Peak : 0.973175 CRC32 hash (test run) : AD978739 CRC32 hash : AD978739 CRC32 hash (skip zero) : 6EC7BF09 AccurateRip signature : 8DB7A89B ->Track not present in AccurateRip database. Statistics Read error : 0 Skipped (treated as error) : 0 Edge jitter error (maybe fixed) : 0 Atom jitter error (maybe fixed) : 0 Drift error (maybe fixed) : 0 Dropped bytes error (maybe fixed) : 0 Duplicated bytes error (maybe fixed) : 0 Inconsistency in error sectors : 0

Track 06 Filename : /Volumes/HFS1/XLD Conversions/Tigran Hamasyan - A Fable (2011) [FLAC]/06 Longing.flac Pre-gap length : 00:02:69

Track gain : -2.64 dB Peak : 0.938904 CRC32 hash (test run) : 5EDB9AC0 CRC32 hash : 5EDB9AC0 CRC32 hash (skip zero) : E03C3B31 AccurateRip signature : E8D8D260 ->Track not present in AccurateRip database. Statistics Read error : 0 Skipped (treated as error) : 0 Edge jitter error (maybe fixed) : 0 Atom jitter error (maybe fixed) : 0 Drift error (maybe fixed) : 0 Dropped bytes error (maybe fixed) : 0 Duplicated bytes error (maybe fixed) : 0 Inconsistency in error sectors : 0

Track 07 Filename : /Volumes/HFS1/XLD Conversions/Tigran Hamasyan - A Fable (2011) [FLAC]/07 Carnaval.flac Pre-gap length : 00:01:74

Track gain : -2.59 dB Peak : 0.940948 CRC32 hash (test run) : A6EB3DED CRC32 hash : A6EB3DED CRC32 hash (skip zero) : 58158943 AccurateRip signature : 4271E4A8 ->Track not present in AccurateRip database. Statistics Read error : 0 Skipped (treated as error) : 0 Edge jitter error (maybe fixed) : 0 Atom jitter error (maybe fixed) : 0 Drift error (maybe fixed) : 0 Dropped bytes error (maybe fixed) : 0 Duplicated bytes error (maybe fixed) : 0 Inconsistency in error sectors : 0

Track 08 Filename : /Volumes/HFS1/XLD Conversions/Tigran Hamasyan - A Fable (2011) [FLAC]/08 The Legend Of The Moon.flac Pre-gap length : 00:01:73

Track gain : 0.29 dB Peak : 0.973511 CRC32 hash (test run) : E4476F4C CRC32 hash : E4476F4C CRC32 hash (skip zero) : C76B06FA AccurateRip signature : 7B3FC2EC ->Track not present in AccurateRip database. Statistics Read error : 0 Skipped (treated as error) : 0 Edge jitter error (maybe fixed) : 0 Atom jitter error (maybe fixed) : 0 Drift error (maybe fixed) : 0 Dropped bytes error (maybe fixed) : 0 Duplicated bytes error (maybe fixed) : 0 Inconsistency in error sectors : 0

Track 09 Filename : /Volumes/HFS1/XLD Conversions/Tigran Hamasyan - A Fable (2011) [FLAC]/09 Someday My Prince Will Come.flac Pre-gap length : 00:01:37

Track gain : 0.20 dB Peak : 0.707062 CRC32 hash (test run) : E1661108 CRC32 hash : E1661108 CRC32 hash (skip zero) : F1669BFA AccurateRip signature : DD39AD17 ->Track not present in AccurateRip database. Statistics Read error : 0 Skipped (treated as error) : 0 Edge jitter error (maybe fixed) : 0 Atom jitter error (maybe fixed) : 0 Drift error (maybe fixed) : 0 Dropped bytes error (maybe fixed) : 0 Duplicated bytes error (maybe fixed) : 0 Inconsistency in error sectors : 0

Track 10 Filename : /Volumes/HFS1/XLD Conversions/Tigran Hamasyan - A Fable (2011) [FLAC]/10 Kakavik (The Little Partridge).flac Pre-gap length : 00:02:36

Track gain : -5.18 dB Peak : 0.973450 CRC32 hash (test run) : 995B1665 CRC32 hash : 995B1665 CRC32 hash (skip zero) : 9777A0B7 AccurateRip signature : 991DF37B ->Track not present in AccurateRip database. Statistics Read error : 0 Skipped (treated as error) : 0 Edge jitter error (maybe fixed) : 0 Atom jitter error (maybe fixed) : 0 Drift error (maybe fixed) : 0 Dropped bytes error (maybe fixed) : 0 Duplicated bytes error (maybe fixed) : 0 Inconsistency in error sectors : 0

Track 11 Filename : /Volumes/HFS1/XLD Conversions/Tigran Hamasyan - A Fable (2011) [FLAC]/11 A Memory That Became A Dream.flac Pre-gap length : 00:01:39

Track gain : 0.50 dB Peak : 0.632751 CRC32 hash (test run) : 7F7BA20E CRC32 hash : 7F7BA20E CRC32 hash (skip zero) : F62CBCC9 AccurateRip signature : D1C0178E ->Track not present in AccurateRip database. Statistics Read error : 0 Skipped (treated as error) : 0 Edge jitter error (maybe fixed) : 0 Atom jitter error (maybe fixed) : 0 Drift error (maybe fixed) : 0 Dropped bytes error (maybe fixed) : 0 Duplicated bytes error (maybe fixed) : 0 Inconsistency in error sectors : 0

Track 12 Filename : /Volumes/HFS1/XLD Conversions/Tigran Hamasyan - A Fable (2011) [FLAC]/12 A Fable.flac Pre-gap length : 00:03:04

Track gain : -0.43 dB Peak : 0.973083 CRC32 hash (test run) : 5133E76A CRC32 hash : 5133E76A CRC32 hash (skip zero) : 2EAD44A8 AccurateRip signature : 7573F8B8 ->Track not present in AccurateRip database. Statistics Read error : 0 Skipped (treated as error) : 0 Edge jitter error (maybe fixed) : 0 Atom jitter error (maybe fixed) : 0 Drift error (maybe fixed) : 0 Dropped bytes error (maybe fixed) : 0 Duplicated bytes error (maybe fixed) : 0 Inconsistency in error sectors : 0

Track 13 Filename : /Volumes/HFS1/XLD Conversions/Tigran Hamasyan - A Fable (2011) [FLAC]/13 Mother, Where Are You?.flac Pre-gap length : 00:03:16

Track gain : -0.90 dB Peak : 0.845337 CRC32 hash (test run) : C1CC1792 CRC32 hash : C1CC1792 CRC32 hash (skip zero) : 3D65FEFD AccurateRip signature : 0C1F9BAA ->Track not present in AccurateRip database. Statistics Read error : 0 Skipped (treated as error) : 0 Edge jitter error (maybe fixed) : 0 Atom jitter error (maybe fixed) : 0 Drift error (maybe fixed) : 0 Dropped bytes error (maybe fixed) : 0 Duplicated bytes error (maybe fixed) : 0 Inconsistency in error sectors : 0

No errors occurred

End of status report
 
TITLE "A Fable"PERFORMER "Tigran Hamasyan"CATALOG 0602527606866REM GENRE "Jazz"REM DATE "2011"REM DISCNUMBER 1REM TOTALDISCS 1REM DISCID B80C180DFILE "01 Rain Shadow.wav" WAVE TRACK 01 AUDIO TITLE "Rain Shadow" ISRC FRUM71002031 INDEX 01 00:00:00FILE "02 What The Waves Brought.wav" WAVE TRACK 02 AUDIO TITLE "What The Waves Brought" ISRC FRUM71002032 INDEX 01 00:00:00 TRACK 03 AUDIO TITLE "The Spinners" ISRC FRUM71002033 INDEX 00 06:29:33FILE "03 The Spinners.wav" WAVE INDEX 01 00:00:00 TRACK 04 AUDIO TITLE "Illusion" ISRC FRUM71002034 INDEX 00 02:57:53FILE "04 Illusion.wav" WAVE INDEX 01 00:00:00FILE "05 Samsara.wav" WAVE TRACK 05 AUDIO TITLE "Samsara" ISRC FRUM71002035 INDEX 01 00:00:00 TRACK 06 AUDIO TITLE "Longing" ISRC FRUM71002036 INDEX 00 05:33:21FILE "06 Longing.wav" WAVE INDEX 01 00:00:00 TRACK 07 AUDIO TITLE "Carnaval" ISRC FRUM71002037 INDEX 00 05:05:67FILE "07 Carnaval.wav" WAVE INDEX 01 00:00:00 TRACK 08 AUDIO TITLE "The Legend Of The Moon" ISRC FRUM71002038 INDEX 00 02:45:00FILE "08 The Legend Of The Moon.wav" WAVE INDEX 01 00:00:00 TRACK 09 AUDIO TITLE "Someday My Prince Will Come" ISRC FRUM71002039 INDEX 00 05:32:23FILE "09 Someday My Prince Will Come.wav" WAVE INDEX 01 00:00:00 TRACK 10 AUDIO TITLE "Kakavik (The Little Partridge)" ISRC FRUM71002040 INDEX 00 03:39:01FILE "10 Kakavik (The Little Partridge).wav" WAVE INDEX 01 00:00:00 TRACK 11 AUDIO TITLE "A Memory That Became A Dream" ISRC FRUM71002041 INDEX 00 05:55:41FILE "11 A Memory That Became A Dream.wav" WAVE INDEX 01 00:00:00 TRACK 12 AUDIO TITLE "A Fable" ISRC FRUM71002042 INDEX 00 02:37:15FILE "12 A Fable.wav" WAVE INDEX 01 00:00:00 TRACK 13 AUDIO TITLE "Mother, Where Are You?" ISRC FRUM71002043 INDEX 00 05:04:42FILE "13 Mother, Where Are You?.wav" WAVE INDEX 01 00:00:00
 
AUDIOCHECKER v2.0 beta (build 457) - by Dester - opdester@freemail.hu~~~~~~~~~~~~~~~~~~~~~~~~~~~~~~~~~~Started at: суббота, 05. 03. 2011. - 21:21.5513 files found

01 -===- D:\Torrents\Tigran Hamasyan - A Fable (2011) [FLAC]\11 A Memory That Became A Dream.flac Extracted successfully Conclusion: this track is CDDA with probability 62% Tempfile successfully deleted.

02 -===- D:\Torrents\Tigran Hamasyan - A Fable (2011) [FLAC]\12 A Fable.flac Extracted successfully Conclusion: this track is CDDA with probability 100% Tempfile successfully deleted.

03 -===- D:\Torrents\Tigran Hamasyan - A Fable (2011) [FLAC]\13 Mother, Where Are You.flac Extracted successfully Conclusion: this track is CDDA with probability 43% Tempfile successfully deleted.

04 -===- D:\Torrents\Tigran Hamasyan - A Fable (2011) [FLAC]\01 Rain Shadow.flac Extracted successfully Conclusion: this track is CDDA with probability 85% Tempfile successfully deleted.

05 -===- D:\Torrents\Tigran Hamasyan - A Fable (2011) [FLAC]\02 What The Waves Brought.flac Extracted successfully Conclusion: this track is CDDA with probability 43% Tempfile successfully deleted.

06 -===- D:\Torrents\Tigran Hamasyan - A Fable (2011) [FLAC]\03 The Spinners.flac Extracted successfully Conclusion: this track is MPEG with probability 90% Tempfile successfully deleted.

07 -===- D:\Torrents\Tigran Hamasyan - A Fable (2011) [FLAC]\04 Illusion.flac Extracted successfully Conclusion: this track is CDDA with probability 49% Tempfile successfully deleted.

08 -===- D:\Torrents\Tigran Hamasyan - A Fable (2011) [FLAC]\05 Samsara.flac Extracted successfully Conclusion: this track is CDDA with probability 86% Tempfile successfully deleted.

09 -===- D:\Torrents\Tigran Hamasyan - A Fable (2011) [FLAC]\06 Longing.flac Extracted successfully Conclusion: this track is CDDA with probability 85% Tempfile successfully deleted.

10 -===- D:\Torrents\Tigran Hamasyan - A Fable (2011) [FLAC]\07 Carnaval.flac Extracted successfully Conclusion: this track is CDDA with probability 100% Tempfile successfully deleted.

11 -===- D:\Torrents\Tigran Hamasyan - A Fable (2011) [FLAC]\08 The Legend Of The Moon.flac Extracted successfully Conclusion: this track is MPEG with probability 80% Tempfile successfully deleted.

12 -===- D:\Torrents\Tigran Hamasyan - A Fable (2011) [FLAC]\09 Someday My Prince Will Come.flac Extracted successfully Conclusion: this track is MPEG with probability 90% Tempfile successfully deleted.

13 -===- D:\Torrents\Tigran Hamasyan - A Fable (2011) [FLAC]\10 Kakavik (The Little Partridge).flac Extracted successfully Conclusion: this track is CDDA with probability 94% Tempfile successfully deleted.

Finished at: суббота, 05. 03. 2011. - 21:27.46 (operation time: 0:05.51)

Не забываем нажать - сказать "Спасибо"

Трекер:  [ 28-Янв-2012 15:05 ]

  

Скачать .torrent

Размер .torrent файла 17 KB


Размер: 208 MB
Хэш (hash) релиза: 036a4596e67ec9ca5524e1e6daa336cc195a4a47

Еще никто не оставлял запись к записи скачать торрент Tigran Hamasyan - A Fable - 2011, FLAC . Будь первым!

!Обратная связь