Скачать через торрент музыку Deodato - First Cuckoo - 1975, 2006, FLAC бесплатно без регистрации torrent

Если у вас наблюдаются проблемы со скриншотами, переходом по ссылками, скачиванием торрентов - проблемы в блокировщике рекламы AdBlock. #хорошегоДня!


Статистика раздачи
Размер:  247 MB   |    Зарегистрирован:  5 лет 8 месяцев   |    .torrent скачан:  54 раза   |   
Раздают:  1  
   
Загрузка...
 
Автор Сообщение

Umakiro

avatar Umakiro


Deodato / First Cuckoo (1975)

Жанр: Funk, Fusion, Disco
Страна-производитель диска: japan
Год издания диска: 2006
Издатель (лейбл): MCA Records (Japan)
Номер по каталогу: UCCC-9134
Аудио кодек: FLAC (*.flac)
Тип рипа: image+.cue
Битрейт аудио: lossless
Продолжительность: 00:40:02
Источник (релизер): web - не помню где стащил
Наличие сканов в содержимом раздачи: да
Треклист:

01. Funk Yourself (4:15)
02. Black Dog (4:16)
03. Crabwalk (7:41)
04. Adam's Hotel (3:39)
05. Caravan / Watusi Strut (11:37)
06. Speak Low (4:33)
07. First Cuckoo (On Hearing The First Cuckoo In Spring) (4:01)
 
Exact Audio Copy V0.99 prebeta 3 from 28. July 2007

EAC extraction logfile from 20. December 2009, 16:08

Deodato / First Cuckoo

Used drive : PLEXTOR DVDR PX-810SA Adapter: 2 ID: 0

Read mode : SecureUtilize accurate stream : YesDefeat audio cache : YesMake use of C2 pointers : No

Read offset correction : 48Overread into Lead-In and Lead-Out : NoFill up missing offset samples with silence : YesDelete leading and trailing silent blocks : NoNull samples used in CRC calculations : YesUsed interface : Native Win32 interface for Win NT & 2000

Used output format : User Defined EncoderSelected bitrate : 768 kBit/sQuality : HighAdd ID3 tag : NoCommand line compressor : C:\Program Files\Exact Audio Copy\FLAC\FLAC.EXEAdditional command line options : -6 -V -T "ARTIST=%a" -T "TITLE=%t" -T "ALBUM=%g" -T "DATE=%y" -T "TRACKNUMBER=%n" -T "GENRE=%m" -T "COMMENT=%e" %s -o %d

TOC of the extracted CD

Track | Start | Length | Start sector | End sector --------------------------------------------------------- 1 | 0:00.00 | 4:14.65 | 0 | 19114 2 | 4:14.65 | 4:15.65 | 19115 | 38304 3 | 8:30.55 | 7:40.70 | 38305 | 72874 4 | 16:11.50 | 3:39.02 | 72875 | 89301 5 | 19:50.52 | 11:37.08 | 89302 | 141584 6 | 31:27.60 | 4:33.22 | 141585 | 162081 7 | 36:01.07 | 4:00.68 | 162082 | 180149

Range status and errors

Selected range

Filename C:\RIP\Deodato - First Cuckoo.wav

Peak level 97.9 % Range quality 100.0 % Test CRC 54BC592B Copy CRC 54BC592B Copy OK

No errors occurred

AccurateRip summary

Track 1 accurately ripped (confidence 2) [766D9D1A]Track 2 accurately ripped (confidence 2) [F2F0041D]Track 3 accurately ripped (confidence 2) [8CD9D496]Track 4 accurately ripped (confidence 2) [7024BBC4]Track 5 accurately ripped (confidence 2) [2E2494D2]Track 6 accurately ripped (confidence 2) [5C99D574]Track 7 accurately ripped (confidence 2) [41B879D6]

All tracks accurately ripped

End of status report
 
REM GENRE FusionREM DATE 1975REM DISCID 5D096207REM COMMENT "ExactAudioCopy v0.99pb3"PERFORMER "Deodato"TITLE "First Cuckoo"FILE "Deodato - First Cuckoo.flac" WAVE TRACK 01 AUDIO TITLE "Funk Yourself" PERFORMER "Deodato" INDEX 01 00:00:00 TRACK 02 AUDIO TITLE "Black Dog" PERFORMER "Deodato" INDEX 00 04:12:31 INDEX 01 04:14:65 TRACK 03 AUDIO TITLE "Crabwalk" PERFORMER "Deodato" INDEX 00 08:28:21 INDEX 01 08:30:55 TRACK 04 AUDIO TITLE "Adam's Hotel" PERFORMER "Deodato" INDEX 00 16:09:16 INDEX 01 16:11:50 TRACK 05 AUDIO TITLE "Caravan / Watusi Strut" PERFORMER "Deodato" INDEX 00 19:48:18 INDEX 01 19:50:52 TRACK 06 AUDIO TITLE "Speak Low" PERFORMER "Deodato" INDEX 00 31:25:26 INDEX 01 31:27:60 TRACK 07 AUDIO TITLE "First Cuckoo (On Hearing The First Cuckoo In Spring)" PERFORMER "Deodato" INDEX 00 35:58:48 INDEX 01 36:01:07
 
AUDIOCHECKER v2.0 beta (build 457) - by Dester - opdester@freemail.hu~~~~~~~~~~~~~~~~~~~~~~~~~~~~~~~~~~-=== DO NOT EDIT THIS FILE! ===-

Path: ...\Deodato - First Cuckoo 1975

1 -=- Deodato - First Cuckoo.flac -=- CDDA (100%)

149510836
Review
by Richard S. Ginell


Three albums into his MCA contract and only a bit over two years after 2001, Deodato's music reached a state of funk stasis. Through much of this record, he seems bored, wilting under the pressure to repeat the hit formula, comping listlessly on clavinet and electric piano while sidekick John Tropea is equally out of gas on rock guitar. Deodato roams far afield for material, from Led Zeppelin ("Black Dog") all the way to English classical composer Frederick Delius, whose gorgeous orchestration for "On Hearing the First Cuckoo in Spring" he lifts shamelessly. Deodato's own tunes are supremely uninteresting; "Funk Yourself" (same to you, fella!) and "Watusi Strut" (onto whose opening he grafts "Caravan") are boring electric funk workouts, and "Crabwalk" goes nowhere to the beat of a cowbell. Marcos Valle's "Adam's Hotel" is the sole throwback to Deodato's roots, a pretty Brazilian tune traced out on an electric piano, with whistling and subtle strings for that Jobim effect. Again, MCA's drab, tight sound is a far cry from the luxurious treatment he received from CTI.


Трекер:  [ 28-Янв-2012 15:05 ]

  

Скачать .torrent

Размер .torrent файла 20 KB


Размер: 247 MB
Хэш (hash) релиза: 67a26607d171d3286bb59d939a05fbf0947e25d7

Еще никто не оставлял запись к записи скачать торрент Deodato - First Cuckoo - 1975, 2006, FLAC . Будь первым!

!Обратная связь