Скачать через торрент музыку Alex Sipiagin - Out of the Circle - 2008, Flac бесплатно без регистрации torrent

Если у вас наблюдаются проблемы со скриншотами, переходом по ссылками, скачиванием торрентов - проблемы в блокировщике рекламы AdBlock. #хорошегоДня!


Статистика раздачи
Размер:  368 MB   |    Зарегистрирован:  5 лет 8 месяцев   |    .torrent скачан:  29 раз   |   
Раздают:  1  
   
Загрузка...
 
Автор Сообщение

Umakiro

avatar Umakiro


Alex Sipiagin - Out of the Circle

Жанр: Contemporary jazz
Год выпуска диска: 2008
Производитель диска: USA
Аудио кодек: FLAC
Тип рипа: image+.cue
Битрейт аудио: lossless
Продолжительность: 63:45
Трэклист:

1. Wind Dance;
2. Afternoon Dreams;
3. Echoes of Thought;
4. Out of the Circle;
5. Flash;
6. Syn;
7. Sketches of Myself.

Доп. информация:

Personnel:
Alex Sipiagin: trumpet, flugelhorn, piccolo trumpet, bass trumpet (7);
Donny McCaslin: tenor and soprano saxophone, flute;
Robin Eubanks: trombone; Adam Rogers: guitars;
Henry Hey: keyboards; Antonio Sanchez: drums;
Daniel Sadownick: percussion;
Scott Colley: bass;
Gil Goldstein: accordion;
Monday Michiru: vocals and programming.
Exact Audio Copy V0.99 prebeta 4 from 23. January 2008

EAC extraction logfile from 27. February 2009, 19:21

Alex Sipiagin / Out of the Circle

Used drive : TEAC CD-W540E Adapter: 1 ID: 1

Read mode : Secure
Utilize accurate stream : Yes
Defeat audio cache : Yes
Make use of C2 pointers : No

Read offset correction : 686
Overread into Lead-In and Lead-Out : No
Fill up missing offset samples with silence : Yes
Delete leading and trailing silent blocks : No
Null samples used in CRC calculations : Yes
Used interface : Installed external ASPI interface

Used output format : User Defined Encoder
Selected bitrate : 896 kBit/s
Quality : High
Add ID3 tag : No
Command line compressor : C:\Program Files\Exact Audio Copy\Flac\flac.exe
Additional command line options : -8 -V -T "ARTIST=%a" -T "TITLE=%t" -T "ALBUM=%g" -T "DATE=%y" -T "TRACKNUMBER=%n" -T "GENRE=%m" -T "COMMENT=EAC FLAC -8" %s

TOC of the extracted CD

Track | Start | Length | Start sector | End sector
---------------------------------------------------------
1 | 0:00.00 | 9:47.33 | 0 | 44057
2 | 9:47.33 | 10:29.49 | 44058 | 91281
3 | 20:17.07 | 8:47.19 | 91282 | 130825
4 | 29:04.26 | 10:41.11 | 130826 | 178911
5 | 39:45.37 | 7:03.49 | 178912 | 210685
6 | 46:49.11 | 9:07.00 | 210686 | 251710
7 | 55:56.11 | 7:49.22 | 251711 | 286907

Range status and errors

Selected range

Filename D:\Alex Sipiagin\Sipiagin\Alex Sipiagin - Out of the Circle.wav

Peak level 99.7 %
Range quality 100.0 %
Copy CRC 76717D29
Copy OK

No errors occurred

End of status report


Трекер:  [ 28-Янв-2012 15:03 ]

  

Скачать .torrent

Размер .torrent файла 30 KB


Размер: 368 MB
Хэш (hash) релиза: 4e78c63c06d576e33169aad26b823f4fdf07ab36

Еще никто не оставлял запись к записи скачать торрент Alex Sipiagin - Out of the Circle - 2008, Flac . Будь первым!

!Обратная связь