Скачать через торрент музыку Yusef Lateef - The Blue Yusef Lateef - 1968, FLAC бесплатно без регистрации torrent

Если у вас наблюдаются проблемы со скриншотами, переходом по ссылками, скачиванием торрентов - проблемы в блокировщике рекламы AdBlock. #хорошегоДня!


Статистика раздачи
Размер:  198 MB   |    Зарегистрирован:  5 лет 8 месяцев   |    .torrent скачан:  26 раз   |   
Раздают:  1  
   
Загрузка...
 
Автор Сообщение

Umakiro

avatar Umakiro


Yusef Lateef - The Blue Yusef Lateef

Жанр: Hard-bop
Год выпуска диска: 1968
Производитель диска: US
Аудио кодек: FLAC
Тип рипа: tracks+.cue
Битрейт аудио: lossless
Продолжительность: 36:38

Трэклист:
01 - Juba Juba (4:24)
02 - Like It Is (7:35)
03 - Othelia (4:39)
04 - Moon Cup (3:18)
05 - Back Home (5:04)
06 - Get Over, Get Off And Get On (3:46)
07 - Six Miles Next Door (4:47)
08 - Sun Dog (3:06)

Доп. информация: Yusef Lateef vocals, koto, tambura, flute, bamboo flute, shanai, tenor saxophone, scratcher
Sonny Red alto saxophone
Blue Mitchell trumpet
Buddy Lucas harmonica
Kenny Burrell guitar
Hugh Lawson piano
Cecil McBee double bass
Bob Cranshaw bass guitar
Roy Brooks drums
William Fischer conductor
The Sweet Inspirations background vocals
X Lossless Decoder version 20090320 (105.1)

XLD extraction logfile from 2009-05-20 17:27:54 +0200

Yusef Lateef / The Blue Yusef Lateef

Used drive : PIONEER DVD-RW DVR-110D (revision AA06)

Use cdparanoia mode : YES (CDParanoia III 10.2 engine)
Disable audio cache : OK for the drive with cache less than 2750KB
Make use of C2 pointers : NO
Read offset correction : 48
Max retry count : 100

TOC of the extracted CD
Track | Start | Length | Start sector | End sector
---------------------------------------------------------
1 | 00:00:00 | 04:24:02 | 0 | 19801
2 | 04:24:02 | 07:34:55 | 19802 | 53906
3 | 11:58:57 | 04:38:43 | 53907 | 74799
4 | 16:37:25 | 03:18:27 | 74800 | 89676
5 | 19:55:52 | 05:03:48 | 89677 | 112449
6 | 24:59:25 | 03:46:37 | 112450 | 129436
7 | 28:45:62 | 04:46:63 | 129437 | 150949
8 | 33:32:50 | 03:06:10 | 150950 | 164909

Track 01
Filename : /Users/Shared/Yusef Lateef - The Blue Yusef Lateef [Flac Log Cue]/01 Yusef Lateef - Juba Juba (Remastered LP Version ).flac

CRC32 hash (test run) : 133C4ACD
CRC32 hash : 133C4ACD
CRC32 hash (skip zero) : CC9AF358
AccurateRip signature : 7F6A6908
->Accurately ripped! (confidence 1)
Statistics
Read error : 0
Skipped (treated as error) : 0
Edge jitter error (maybe fixed) : 0
Atom jitter error (maybe fixed) : 0
Drift error (maybe fixed) : 0
Dropped bytes error (maybe fixed) : 0
Duplicated bytes error (maybe fixed) : 0
Inconsistency in error sectors : 0

Track 02
Filename : /Users/Shared/Yusef Lateef - The Blue Yusef Lateef [Flac Log Cue]/02 Yusef Lateef - Like It Is (Remastered LP Version).flac

CRC32 hash (test run) : 366E010F
CRC32 hash : 366E010F
CRC32 hash (skip zero) : A307DFAC
AccurateRip signature : DB0E613A
->Accurately ripped! (confidence 1)
Statistics
Read error : 0
Skipped (treated as error) : 0
Edge jitter error (maybe fixed) : 0
Atom jitter error (maybe fixed) : 0
Drift error (maybe fixed) : 0
Dropped bytes error (maybe fixed) : 0
Duplicated bytes error (maybe fixed) : 0
Inconsistency in error sectors : 0

Track 03
Filename : /Users/Shared/Yusef Lateef - The Blue Yusef Lateef [Flac Log Cue]/03 Yusef Lateef - Othelia (Remastered LP Version).flac

CRC32 hash (test run) : 5119D6A8
CRC32 hash : 5119D6A8
CRC32 hash (skip zero) : 2001953D
AccurateRip signature : 75DB4842
->Accurately ripped! (confidence 1)
Statistics
Read error : 0
Skipped (treated as error) : 0
Edge jitter error (maybe fixed) : 0
Atom jitter error (maybe fixed) : 0
Drift error (maybe fixed) : 0
Dropped bytes error (maybe fixed) : 0
Duplicated bytes error (maybe fixed) : 0
Inconsistency in error sectors : 0

Track 04
Filename : /Users/Shared/Yusef Lateef - The Blue Yusef Lateef [Flac Log Cue]/04 Yusef Lateef - Moon Cup (Remastered LP Version).flac

CRC32 hash (test run) : CA18A3B6
CRC32 hash : CA18A3B6
CRC32 hash (skip zero) : 2392DC65
AccurateRip signature : 1405DD71
->Accurately ripped! (confidence 1)
Statistics
Read error : 0
Skipped (treated as error) : 0
Edge jitter error (maybe fixed) : 0
Atom jitter error (maybe fixed) : 0
Drift error (maybe fixed) : 0
Dropped bytes error (maybe fixed) : 0
Duplicated bytes error (maybe fixed) : 0
Inconsistency in error sectors : 0

Track 05
Filename : /Users/Shared/Yusef Lateef - The Blue Yusef Lateef [Flac Log Cue]/05 Yusef Lateef - Back Home (Remastered LP Version).flac

CRC32 hash (test run) : E36E8BA4
CRC32 hash : E36E8BA4
CRC32 hash (skip zero) : 69CF6D64
AccurateRip signature : CC879A22
->Accurately ripped! (confidence 1)
Statistics
Read error : 0
Skipped (treated as error) : 0
Edge jitter error (maybe fixed) : 0
Atom jitter error (maybe fixed) : 0
Drift error (maybe fixed) : 0
Dropped bytes error (maybe fixed) : 0
Duplicated bytes error (maybe fixed) : 0
Inconsistency in error sectors : 0

Track 06
Filename : /Users/Shared/Yusef Lateef - The Blue Yusef Lateef [Flac Log Cue]/06 Yusef Lateef - Get Over, Get Off And Get On (Remastered LP Version).flac

CRC32 hash (test run) : 91A72EEB
CRC32 hash : 91A72EEB
CRC32 hash (skip zero) : 69A3D21C
AccurateRip signature : DFF58F0C
->Accurately ripped! (confidence 1)
Statistics
Read error : 0
Skipped (treated as error) : 0
Edge jitter error (maybe fixed) : 0
Atom jitter error (maybe fixed) : 0
Drift error (maybe fixed) : 0
Dropped bytes error (maybe fixed) : 0
Duplicated bytes error (maybe fixed) : 0
Inconsistency in error sectors : 0

Track 07
Filename : /Users/Shared/Yusef Lateef - The Blue Yusef Lateef [Flac Log Cue]/07 Yusef Lateef - Six Miles Next Door (Remastered LP Version).flac

CRC32 hash (test run) : 4FA73682
CRC32 hash : 4FA73682
CRC32 hash (skip zero) : F076721D
AccurateRip signature : C46900C1
->Accurately ripped! (confidence 1)
Statistics
Read error : 0
Skipped (treated as error) : 0
Edge jitter error (maybe fixed) : 0
Atom jitter error (maybe fixed) : 0
Drift error (maybe fixed) : 0
Dropped bytes error (maybe fixed) : 0
Duplicated bytes error (maybe fixed) : 0
Inconsistency in error sectors : 0

Track 08
Filename : /Users/Shared/Yusef Lateef - The Blue Yusef Lateef [Flac Log Cue]/08 Yusef Lateef - Sun Dog (Remastered LP Version).flac

CRC32 hash (test run) : 93372B7B
CRC32 hash : 93372B7B
CRC32 hash (skip zero) : 3E9C3859
AccurateRip signature : 0A6B8536
->Accurately ripped! (confidence 1)
Statistics
Read error : 0
Skipped (treated as error) : 0
Edge jitter error (maybe fixed) : 0
Atom jitter error (maybe fixed) : 0
Drift error (maybe fixed) : 0
Dropped bytes error (maybe fixed) : 0
Duplicated bytes error (maybe fixed) : 0
Inconsistency in error sectors : 0

No errors occurred

End of status report
Атлантиковский альбом Латифа, то бишь более попсоватый его период. Но, все равно, музыка довольна разная, есть и более фанковые вещи, есть и с характерным гобоевским восточным привкусом. Тем, кто любит Латифа, стоит качать.
Если нужно еще, есть пару его альбомов.

Трекер:  [ 28-Янв-2012 15:03 ]

  

Скачать .torrent

Размер .torrent файла 33 KB


Размер: 198 MB
Хэш (hash) релиза: 9cafa0fc6b68bbfb1f388691b5aa4730373aa19d

Еще никто не оставлял запись к записи скачать торрент Yusef Lateef - The Blue Yusef Lateef - 1968, FLAC . Будь первым!

!Обратная связь