Скачать через торрент музыку Aldo Romano - Non Dimenticar - 1993 - 1993, FLAC бесплатно без регистрации torrent

Если у вас наблюдаются проблемы со скриншотами, переходом по ссылками, скачиванием торрентов - проблемы в блокировщике рекламы AdBlock. #хорошегоДня!


Статистика раздачи
Размер:  251 MB   |    Зарегистрирован:  5 лет 8 месяцев   |    .torrent скачан:  26 раз   |   
Раздают:  1  
   
Загрузка...
 
Автор Сообщение

Umakiro

avatar Umakiro


Aldo Romano - Non Dimenticar - 1993

Жанр: Post-Bop / Free Jazz
Год выпуска диска: 1993
Производитель диска: MLP/PolyGram S.A. France/518 264 2
Аудио кодек: FLAC
Тип рипа: tracks+.cue
Битрейт аудио: lossless
Продолжительность: 00 : 50 : 43
Трэклист:
01. Caruso (4:32)
02. T'ho Voluto bene (4:51)
03. Estate (4:22)
04. Resta cu' mme (5:05)
05. Torna a surriento (7:03)
06. O sole mio (5:51)
07. Varca lucente (6:37)
08. Gelsomina (4:37)
09. Malafemmena (5:09)
10. Volare (nel blu, dipinto di blu) (2:36)
Exact Audio Copy V0.99 prebeta 5 from 4. May 2009

Отчёт EAC об извлечении, выполненном 24. мая 2010, 23:28

Aldo Romano Quartet / Non Dimenticar

Дисковод: SONY DVD RW DRX-S70U Adapter: 1 ID: 0

Режим чтения : Достоверность
Использование точного потока : Да
Отключение кэша аудио : Да
Использование указателей C2 : Нет

Коррекция смещения при чтении : 48
Способность читать области Lead-in и Lead-out : Нет
Заполнение пропущенных сэмплов тишиной : Да
Удаление блоков с тишиной в начале и конце : Нет
При вычислениях CRC использовались нулевые сэмплы : Да
Интерфейс : Встроенный Win32-интерфейс для Win NT/2000
Обработка зазоров : Добавлено к предыдущему треку

Выходной формат : Пользовательский кодировщик
Выбранный битрейт : 768 kBit/s
Качество : Высокий
Добавление ID3-тэга : Да
Утилита сжатия : H:\Program Files\Exact Audio Copy\Flac\flac.exe
Дополнительные параметры : -6 -V -T "ARTIST=%a" -T "TITLE=%t" -T "ALBUM=%g" -T "DATE=%y" -T "TRACKNUMBER=%n" -T "GENRE=%m" -T "COMMENT=%e" %s -o %d

TOC извлечённого CD

Трек | Старт | Длительность | Начальный сектор | Конечный сектор
---------------------------------------------------------------------
1 | 0:00.33 | 4:32.00 | 33 | 20432
2 | 4:32.33 | 4:51.25 | 20433 | 42282
3 | 9:23.58 | 4:21.50 | 42283 | 61907
4 | 13:45.33 | 5:05.25 | 61908 | 84807
5 | 18:50.58 | 7:03.37 | 84808 | 116569
6 | 25:54.20 | 5:50.50 | 116570 | 142869
7 | 31:44.70 | 6:36.38 | 142870 | 172607
8 | 38:21.33 | 4:37.25 | 172608 | 193407
9 | 42:58.58 | 5:08.62 | 193408 | 216569
10 | 48:07.45 | 2:35.63 | 216570 | 228257

Трек 1

Имя файла F:\Aldo Romano Quartet\[01]Caruso.wav

Длина предзазора 0:00:02.44

Пиковый уровень 92.6 %
Качество трека 100.0 %
CRC теста 518D26C4
CRC копии 518D26C4
Точное извлечение (достоверность 2) [9C5D044F]
Копирование... OK

Трек 2

Имя файла F:\Aldo Romano Quartet\[02]T'ho Voluto bene.wav

Длина предзазора 0:00:03.66

Пиковый уровень 98.2 %
Качество трека 100.0 %
CRC теста CBEA1255
CRC копии CBEA1255
Точное извлечение (достоверность 2) [B0B8AFBC]
Копирование... OK

Трек 3

Имя файла F:\Aldo Romano Quartet\[03]Estate.wav

Длина предзазора 0:00:04.17

Пиковый уровень 92.3 %
Качество трека 99.9 %
CRC теста 617060DE
CRC копии 617060DE
Точное извлечение (достоверность 2) [7DF6E997]
Копирование... OK

Трек 4

Имя файла F:\Aldo Romano Quartet\[04]Resta cu' mme.wav

Длина предзазора 0:00:02.66

Пиковый уровень 88.8 %
Качество трека 100.0 %
CRC теста 72AD8939
CRC копии 72AD8939
Точное извлечение (достоверность 2) [BB0CF960]
Копирование... OK

Трек 5

Имя файла F:\Aldo Romano Quartet\[05]Torna a surriento.wav

Длина предзазора 0:00:03.33

Пиковый уровень 99.5 %
Качество трека 100.0 %
CRC теста B3250697
CRC копии B3250697
Трек не обнаружен в базе AccurateRip
Копирование... OK

Трек 6

Имя файла F:\Aldo Romano Quartet\[06]O sole mio.wav

Длина предзазора 0:00:04.33

Пиковый уровень 82.9 %
Качество трека 99.9 %
CRC теста CC8B63B5
CRC копии CC8B63B5
Трек не обнаружен в базе AccurateRip
Копирование... OK

Трек 7

Имя файла F:\Aldo Romano Quartet\[07]Varca lucente.wav

Длина предзазора 0:00:03.49

Пиковый уровень 82.2 %
Качество трека 99.9 %
CRC теста B6B9F1F6
CRC копии B6B9F1F6
Трек не обнаружен в базе AccurateRip
Копирование... OK

Трек 8

Имя файла F:\Aldo Romano Quartet\[08]Gelsomina.wav

Длина предзазора 0:00:04.00

Пиковый уровень 100.0 %
Качество трека 100.0 %
CRC теста C34BFD4D
CRC копии C34BFD4D
Трек не обнаружен в базе AccurateRip
Копирование... OK

Трек 9

Имя файла F:\Aldo Romano Quartet\[09]Malafemmena.wav

Длина предзазора 0:00:03.66

Пиковый уровень 80.9 %
Качество трека 99.9 %
CRC теста 94D47D35
CRC копии 94D47D35
Трек не обнаружен в базе AccurateRip
Копирование... OK

Трек 10

Имя файла F:\Aldo Romano Quartet\[10]Volare (nel blu, dipinto di blu).wav

Длина предзазора 0:00:04.49

Пиковый уровень 100.0 %
Качество трека 100.0 %
CRC теста 19869A51
CRC копии 19869A51
Трек не обнаружен в базе AccurateRip
Копирование... OK

4 трек(и) скопированы точно
6 трек(и) не содержатся в базе AccurateRip

Некоторые треки не прошли проверку на точность

Ошибок не произошло

Конец отчёта
AUDIOCHECKER v2.0 beta (build 457) - by Dester - opdester@freemail.hu
~~~~~~~~~~~~~~~~~~~~~~~~~~~~~~~~~~
-=== НЕ РЕДАКТИРУЙТЕ ЭТОТ ФАЙЛ! ===-

Путь: ...\Aldo Romano Quartet

01 -=- [01]Caruso.flac -=- CDDA (99%)
02 -=- [02]T'ho Voluto bene.flac -=- CDDA (99%)
03 -=- [03]Estate.flac -=- CDDA (100%)
04 -=- [04]Resta cu' mme.flac -=- CDDA (99%)
05 -=- [05]Torna a surriento.flac -=- CDDA (100%)
06 -=- [06]O sole mio.flac -=- CDDA (99%)
07 -=- [07]Varca lucente.flac -=- CDDA (100%)
08 -=- [08]Gelsomina.flac -=- CDDA (100%)
09 -=- [09]Malafemmena.flac -=- CDDA (99%)
10 -=- [10]Volare (nel blu, dipinto di blu).flac -=- CDDA (100%)

Сводка 99,50% CDDA

163670388
REM GENRE Jazz
REM DATE 1993
REM DISCID 8A0BE30A
REM COMMENT "ExactAudioCopy v0.99pb5"
PERFORMER "Aldo Romano Quartet"
TITLE "Non Dimenticar"
FILE "[01]Caruso.wav" WAVE
TRACK 01 AUDIO
TITLE "Caruso"
PERFORMER "Aldo Romano Quartet"
PREGAP 00:00:33
INDEX 01 00:00:00
TRACK 02 AUDIO
TITLE "T'ho Voluto bene"
PERFORMER "Aldo Romano Quartet"
INDEX 00 04:28:25
FILE "[02]T'ho Voluto bene.wav" WAVE
INDEX 01 00:00:00
TRACK 03 AUDIO
TITLE "Estate"
PERFORMER "Aldo Romano Quartet"
INDEX 00 04:47:12
FILE "[03]Estate.wav" WAVE
INDEX 01 00:00:00
TRACK 04 AUDIO
TITLE "Resta cu' mme"
PERFORMER "Aldo Romano Quartet"
INDEX 00 04:19:00
FILE "[04]Resta cu' mme.wav" WAVE
INDEX 01 00:00:00
TRACK 05 AUDIO
TITLE "Torna a surriento"
PERFORMER "Aldo Romano Quartet"
INDEX 00 05:02:00
FILE "[05]Torna a surriento.wav" WAVE
INDEX 01 00:00:00
TRACK 06 AUDIO
TITLE "O sole mio"
PERFORMER "Aldo Romano Quartet"
INDEX 00 06:59:12
FILE "[06]O sole mio.wav" WAVE
INDEX 01 00:00:00
TRACK 07 AUDIO
TITLE "Varca lucente"
PERFORMER "Aldo Romano Quartet"
INDEX 00 05:47:13
FILE "[07]Varca lucente.wav" WAVE
INDEX 01 00:00:00
TRACK 08 AUDIO
TITLE "Gelsomina"
PERFORMER "Aldo Romano Quartet"
INDEX 00 06:32:38
FILE "[08]Gelsomina.wav" WAVE
INDEX 01 00:00:00
TRACK 09 AUDIO
TITLE "Malafemmena"
PERFORMER "Aldo Romano Quartet"
INDEX 00 04:33:50
FILE "[09]Malafemmena.wav" WAVE
INDEX 01 00:00:00
TRACK 10 AUDIO
TITLE "Volare (nel blu, dipinto di blu)"
PERFORMER "Aldo Romano Quartet"
INDEX 00 05:04:25
FILE "[10]Volare (nel blu, dipinto di blu).wav" WAVE
INDEX 01 00:00:00
рип мой с оригинального cd из моей коллекции .

Трекер:  [ 28-Янв-2012 15:02 ]

  

Скачать .torrent

Размер .torrent файла 21 KB


Размер: 251 MB
Хэш (hash) релиза: eceaeb3b96325b38d556f15d14662f3dbbd7dabb

Еще никто не оставлял запись к записи скачать торрент Aldo Romano - Non Dimenticar - 1993 - 1993, FLAC . Будь первым!

!Обратная связь