Скачать через торрент музыку Makoto Ozone - Treasure - 2002, FLAC бесплатно без регистрации torrent

Если у вас наблюдаются проблемы со скриншотами, переходом по ссылками, скачиванием торрентов - проблемы в блокировщике рекламы AdBlock. #хорошегоДня!


Статистика раздачи
Размер:  364 MB   |    Зарегистрирован:  5 лет 8 месяцев   |    .torrent скачан:  38 раз   |   
Раздают:  1  
   
Загрузка...
 
Автор Сообщение

Umakiro

avatar Umakiro


Makoto Ozone - Treasure

Жанр: Jazz
Год выпуска диска: 2002
Производитель диска: Россия (лицензия)
Аудио кодек: FLAC
Тип рипа: tracks+.cue
Битрейт аудио: lossless
Продолжительность: 1:12:52

Трэклист:
1. Bienvenidos al Mundo (3:41)
2. My Lazy Uncle (4:17)
3. Tanglewood '63 (6:19)
4. La Fiesta (7:25)
5. Three Wishes (5:53)
6. Only We Know (5:31)
7. Rainbow's End (4:43)
8. Samba D'Rivera (7:40)
9. Margaret (4:20)
10. Pandora (10:26)
11. Might As Well (5:49)
12. Where Do We Go From Here (6:48)
 
Exact Audio Copy V0.99 prebeta 4 from 23. January 2008

EAC extraction logfile from 5. November 2008, 22:10

Makoto Ozone / Treasure

Used drive : _NEC DVD_RW ND-4570A Adapter: 1 ID: 0

Read mode : SecureUtilize accurate stream : YesDefeat audio cache : YesMake use of C2 pointers : No

Read offset correction : 48Overread into Lead-In and Lead-Out : NoFill up missing offset samples with silence : YesDelete leading and trailing silent blocks : NoNull samples used in CRC calculations : YesUsed interface : Installed external ASPI interfaceGap handling : Appended to previous track

Used output format : Internal WAV RoutinesSample format : 44.100 Hz; 16 Bit; Stereo

TOC of the extracted CD

Track | Start | Length | Start sector | End sector --------------------------------------------------------- 1 | 0:00.00 | 3:41.25 | 0 | 16599 2 | 3:41.25 | 4:17.70 | 16600 | 35944 3 | 7:59.20 | 6:19.25 | 35945 | 64394 4 | 14:18.45 | 7:25.15 | 64395 | 97784 5 | 21:43.60 | 5:53.72 | 97785 | 124331 6 | 27:37.57 | 5:31.70 | 124332 | 149226 7 | 33:09.52 | 4:43.20 | 149227 | 170471 8 | 37:52.72 | 7:40.23 | 170472 | 204994 9 | 45:33.20 | 4:20.10 | 204995 | 224504 10 | 49:53.30 | 10:26.12 | 224505 | 271466 11 | 60:19.42 | 5:49.05 | 271467 | 297646 12 | 66:08.47 | 6:48.70 | 297647 | 328316

Track 1

Filename O:\0 Torrents\0 Jazz\0\Makoto Ozone\Makoto Ozone - 2002 Treasure\01 - Bienvenidos al Mundo.wav

Pre-gap length 0:00:02.00

Peak level 99.8 % Track quality 100.0 % Test CRC 7D946020 Copy CRC 7D946020 Cannot be verified as accurate (confidence 2) [A28EC246], AccurateRip returned [9DFD35AE] Copy OK

Track 2

Filename O:\0 Torrents\0 Jazz\0\Makoto Ozone\Makoto Ozone - 2002 Treasure\02 - My Lazy Uncle.wav

Pre-gap length 0:00:01.73

Peak level 99.8 % Track quality 100.0 % Test CRC 5D481BE0 Copy CRC 5D481BE0 Cannot be verified as accurate (confidence 2) [F8D854C0], AccurateRip returned [CF6DB856] Copy OK

Track 3

Filename O:\0 Torrents\0 Jazz\0\Makoto Ozone\Makoto Ozone - 2002 Treasure\03 - Tanglewood '63.wav

Pre-gap length 0:00:02.50

Peak level 99.8 % Track quality 100.0 % Test CRC 255201AE Copy CRC 255201AE Cannot be verified as accurate (confidence 2) [B7D6F0FA], AccurateRip returned [7DD4845A] Copy OK

Track 4

Filename O:\0 Torrents\0 Jazz\0\Makoto Ozone\Makoto Ozone - 2002 Treasure\04 - La Fiesta.wav

Pre-gap length 0:00:02.26

Peak level 99.8 % Track quality 100.0 % Test CRC E16CD248 Copy CRC E16CD248 Cannot be verified as accurate (confidence 2) [A7D72991], AccurateRip returned [1C833C41] Copy OK

Track 5

Filename O:\0 Torrents\0 Jazz\0\Makoto Ozone\Makoto Ozone - 2002 Treasure\05 - Three Wishes.wav

Pre-gap length 0:00:02.80

Peak level 99.8 % Track quality 99.9 % Test CRC 2042A6B9 Copy CRC 2042A6B9 Track not present in AccurateRip database Copy OK

Track 6

Filename O:\0 Torrents\0 Jazz\0\Makoto Ozone\Makoto Ozone - 2002 Treasure\06 - Only We Know.wav

Pre-gap length 0:00:02.86

Peak level 97.2 % Track quality 100.0 % Test CRC 34A530BB Copy CRC 34A530BB Cannot be verified as accurate (confidence 2) [DF82BC5C], AccurateRip returned [DC56E7E1] Copy OK

Track 7

Filename O:\0 Torrents\0 Jazz\0\Makoto Ozone\Makoto Ozone - 2002 Treasure\07 - Rainbow's End.wav

Pre-gap length 0:00:02.42

Peak level 99.8 % Track quality 99.9 % Test CRC AAA72702 Copy CRC AAA72702 Cannot be verified as accurate (confidence 2) [0E87FF6D], AccurateRip returned [65508CAA] Copy OK

Track 8

Filename O:\0 Torrents\0 Jazz\0\Makoto Ozone\Makoto Ozone - 2002 Treasure\08 - Samba D'Rivera.wav

Pre-gap length 0:00:02.66

Peak level 99.8 % Track quality 100.0 % Test CRC A8C88AED Copy CRC A8C88AED Cannot be verified as accurate (confidence 2) [B335232A], AccurateRip returned [C2FE9A85] Copy OK

Track 9

Filename O:\0 Torrents\0 Jazz\0\Makoto Ozone\Makoto Ozone - 2002 Treasure\09 - Margaret.wav

Pre-gap length 0:00:02.57

Peak level 99.8 % Track quality 100.0 % Test CRC 8D7EF2C3 Copy CRC 8D7EF2C3 Cannot be verified as accurate (confidence 2) [CCAAB19A], AccurateRip returned [29183BAA] Copy OK

Track 10

Filename O:\0 Torrents\0 Jazz\0\Makoto Ozone\Makoto Ozone - 2002 Treasure\10 - Pandora.wav

Pre-gap length 0:00:03.50

Peak level 99.8 % Track quality 100.0 % Test CRC 032C6353 Copy CRC 032C6353 Cannot be verified as accurate (confidence 2) [5B46502F], AccurateRip returned [B0823C20] Copy OK

Track 11

Filename O:\0 Torrents\0 Jazz\0\Makoto Ozone\Makoto Ozone - 2002 Treasure\11 - Might As Well.wav

Pre-gap length 0:00:03.00

Peak level 99.8 % Track quality 100.0 % Test CRC 478B05B1 Copy CRC 478B05B1 Cannot be verified as accurate (confidence 2) [63CA481D], AccurateRip returned [8E753B83] Copy OK

Track 12

Filename O:\0 Torrents\0 Jazz\0\Makoto Ozone\Makoto Ozone - 2002 Treasure\12 - Where Do We Go From Here .wav

Pre-gap length 0:00:04.46

Peak level 99.8 % Track quality 100.0 % Test CRC B964CAA6 Copy CRC B964CAA6 Cannot be verified as accurate (confidence 2) [0E83088D], AccurateRip returned [5EA802BC] Copy OK

11 track(s) could not be verified as accurate 1 track(s) not present in the AccurateRip database

No tracks could be verified as accurateYou may have a different pressing from the one(s) in the database

No errors occurred

End of status report
AUDIOCHECKER v2.0 beta (build 457) - by Dester - opdester@freemail.hu
~~~~~~~~~~~~~~~~~~~~~~~~~~~~~~~~~~
-=== DO NOT EDIT THIS FILE! ===-

Path: ...\Makoto Ozone - 2002 Treasure

01 -=- 01 - Bienvenidos al Mundo.wav -=- CDDA (100%)
02 -=- 02 - My Lazy Uncle.wav -=- CDDA (100%)
03 -=- 03 - Tanglewood '63.wav -=- CDDA (85%)
04 -=- 04 - La Fiesta.wav -=- CDDA (100%)
05 -=- 05 - Three Wishes.wav -=- CDDA (100%)
06 -=- 06 - Only We Know.wav -=- CDDA (100%)
07 -=- 07 - Rainbow's End.wav -=- CDDA (99%)
08 -=- 08 - Samba D'Rivera.wav -=- CDDA (100%)
09 -=- 09 - Margaret.wav -=- CDDA (100%)
10 -=- 10 - Pandora.wav -=- CDDA (100%)
11 -=- 11 - Might As Well.wav -=- CDDA (94%)
12 -=- 12 - Where Do We Go From Here .wav -=- CDDA (99%)

Summary 98,08% CDDA

20842084


Трекер:  [ 28-Янв-2012 15:01 ]

  

Скачать .torrent

Размер .torrent файла 16 KB


Размер: 364 MB
Хэш (hash) релиза: 69925a46d222a73883fb93547c7aa9ffdc5d2ec3

Еще никто не оставлял запись к записи скачать торрент Makoto Ozone - Treasure - 2002, FLAC . Будь первым!

!Обратная связь