Скачать через торрент музыку Thelonious Monk - Solo Monk - 1964-65, FLAC бесплатно без регистрации torrent

Если у вас наблюдаются проблемы со скриншотами, переходом по ссылками, скачиванием торрентов - проблемы в блокировщике рекламы AdBlock. #хорошегоДня!


Статистика раздачи
Размер:  367 MB   |    Зарегистрирован:  5 лет 8 месяцев   |    .torrent скачан:  35 раз   |   
Раздают:  1  
   
Загрузка...
 
Автор Сообщение

Umakiro

avatar Umakiro


Thelonious Monk - Solo Monk

Жанр: Bop/Progressive Jazz
Год выпуска диска: 2003
Year Of Release: Oct 31, 1964-Mar 2, 1965
Производитель диска: U.S.A.
Label: Columbia
Аудио кодек: FLAC
Тип рипа: tracks+.cue
Битрейт аудио: lossless
Продолжительность: 66:36
Источник: нонэйм, автор scofild
Трэклист:
01. Dinah [Take 2] (Akst, Lewis, Young) 2:30
02. I Surrender, Dear (Barris, Clifford) 3:47
03. Sweet and Lovely [Take 2] (Arnheim, LeMare, Tobias) 3:03
04. North of the Sunset (Monk) 1:55
05. Ruby, My Dear [Take 3] (Monk) 5:42
06. I'm Confessin' (That I Love You) (Daugherty, Neiburg, Reynolds) 2:39
07. I Hadn't Told Anyone Till You (Noble) 3:21
08. Everything Happens to Me [Take 3] (Adair, Dennis) 3:31
09. Monk's Point (Monk) 2:20
10. I Should Care (Cahn, Stordahl, Weston) 2:00
11. Ask Me Now [Take 2] (Monk) 4:40
12. These Foolish Things (Link, Marvell, Strachey) 3:36
13. Introspection (*) (Monk) 2:14
14. Darn That Dream (*) (DeLange, VanHeusen) 3:41
15. Dinah [Take 1] (*) (Akst, Lewis, Young) 2:25
16. Sweet and Lovely [Take 1] (*) (Arnheim, LeMare, Tobias) 3:18
17. Ruby, My Dear [Take 1] (*) (Monk) 4:48
18. I'm Confessin' (That I Love You) [Take 1] (*) (Daugherty, Neiburg, Reynolds) 2:44
19. I Hadn't Told Anyone Till You [Take 2] (*) (Noble) 3:21
20. Everything Happens to Me [Retake 1] (*) (Adair, Dennis) 5:20
21. Ask Me Now [Take 1] (*) (Monk) 3:43
Exact Audio Copy V0.99 prebeta 4 from 23. January 2008

EAC extraction logfile from 8. March 2009, 13:02

Thelonious Monk / Solo Monk

Used drive : _NEC DVD_RW ND-3540A Adapter: 0 ID: 0

Read mode : Secure
Utilize accurate stream : Yes
Defeat audio cache : Yes
Make use of C2 pointers : No

Read offset correction : 48
Overread into Lead-In and Lead-Out : No
Fill up missing offset samples with silence : Yes
Delete leading and trailing silent blocks : No
Null samples used in CRC calculations : Yes
Used interface : Native Win32 interface for Win NT & 2000
Gap handling : Appended to previous track

Used output format : User Defined Encoder
Selected bitrate : 32 kBit/s
Quality : High
Add ID3 tag : No
Command line compressor : C:\Program Files\FLAC\flac.exe
Additional command line options : -8 -V -T "ARTIST=%a" -T "TITLE=%t" -T "ALBUM=%g" -T "DATE=%y" -T "TRACKNUMBER=%n" -T "GENRE=%m" -T "COMMENT=EAC FLAC -8" %s

TOC of the extracted CD

Track | Start | Length | Start sector | End sector
---------------------------------------------------------
1 | 0:00.00 | 2:30.20 | 0 | 11269
2 | 2:30.20 | 3:47.15 | 11270 | 28309
3 | 6:17.35 | 3:03.07 | 28310 | 42041
4 | 9:20.42 | 1:55.50 | 42042 | 50716
5 | 11:16.17 | 5:42.43 | 50717 | 76409
6 | 16:58.60 | 2:39.07 | 76410 | 88341
7 | 19:37.67 | 3:21.30 | 88342 | 103446
8 | 22:59.22 | 3:31.48 | 103447 | 119319
9 | 26:30.70 | 2:20.02 | 119320 | 129821
10 | 28:50.72 | 2:00.18 | 129822 | 138839
11 | 30:51.15 | 4:40.40 | 138840 | 159879
12 | 35:31.55 | 3:36.07 | 159880 | 176086
13 | 39:07.62 | 2:14.43 | 176087 | 186179
14 | 41:22.30 | 3:41.52 | 186180 | 202806
15 | 45:04.07 | 2:25.08 | 202807 | 213689
16 | 47:29.15 | 3:18.45 | 213690 | 228584
17 | 50:47.60 | 4:48.00 | 228585 | 250184
18 | 55:35.60 | 2:44.20 | 250185 | 262504
19 | 58:20.05 | 3:21.10 | 262505 | 277589
20 | 61:41.15 | 5:20.02 | 277590 | 301591
21 | 67:01.17 | 3:43.38 | 301592 | 318354

Track 1

Filename V:\Pedro\Thelonious Monk - Solo Monk (1964-65)\01 - Dinah (Take 2).wav

Pre-gap length 0:00:02.00

Peak level 99.8 %
Track quality 100.0 %
Test CRC BA40B4FD
Copy CRC BA40B4FD
Accurately ripped (confidence 3) [FB176CBC]
Copy OK

Track 2

Filename V:\Pedro\Thelonious Monk - Solo Monk (1964-65)\02 - I Surrender, Dear.wav

Pre-gap length 0:00:01.33

Peak level 99.8 %
Track quality 100.0 %
Test CRC CAC17A7A
Copy CRC CAC17A7A
Accurately ripped (confidence 3) [C67FCA12]
Copy OK

Track 3

Filename V:\Pedro\Thelonious Monk - Solo Monk (1964-65)\03 - Sweet And Lovely (Take 2).wav

Pre-gap length 0:00:01.93

Peak level 99.9 %
Track quality 100.0 %
Test CRC D63AD47C
Copy CRC D63AD47C
Accurately ripped (confidence 3) [C94B420C]
Copy OK

Track 4

Filename V:\Pedro\Thelonious Monk - Solo Monk (1964-65)\04 - North Of The Sunset.wav

Pre-gap length 0:00:02.29

Peak level 99.8 %
Track quality 100.0 %
Test CRC EBB2B690
Copy CRC EBB2B690
Accurately ripped (confidence 3) [9952888B]
Copy OK

Track 5

Filename V:\Pedro\Thelonious Monk - Solo Monk (1964-65)\05 - Ruby, My Dear (Take 3).wav

Pre-gap length 0:00:02.29

Peak level 99.8 %
Track quality 100.0 %
Test CRC 49C13CAF
Copy CRC 49C13CAF
Accurately ripped (confidence 3) [57B98FEA]
Copy OK

Track 6

Filename V:\Pedro\Thelonious Monk - Solo Monk (1964-65)\06 - I'm Confessin' (That I Love You).wav

Pre-gap length 0:00:02.17

Peak level 99.9 %
Track quality 100.0 %
Test CRC CB446582
Copy CRC CB446582
Accurately ripped (confidence 3) [6DFC55FD]
Copy OK

Track 7

Filename V:\Pedro\Thelonious Monk - Solo Monk (1964-65)\07 - I Hadn't Anyone Till You.wav

Pre-gap length 0:00:02.06

Peak level 99.8 %
Track quality 100.0 %
Test CRC 044A6D4E
Copy CRC 044A6D4E
Accurately ripped (confidence 3) [2895B43E]
Copy OK

Track 8

Filename V:\Pedro\Thelonious Monk - Solo Monk (1964-65)\08 - Everything Happens To Me (Take 3).wav

Pre-gap length 0:00:02.89

Peak level 99.8 %
Track quality 100.0 %
Test CRC 1D02A448
Copy CRC 1D02A448
Accurately ripped (confidence 3) [C13D4F77]
Copy OK

Track 9

Filename V:\Pedro\Thelonious Monk - Solo Monk (1964-65)\09 - Monk's Point.wav

Pre-gap length 0:00:01.73

Peak level 99.9 %
Track quality 100.0 %
Test CRC 6A247009
Copy CRC 6A247009
Accurately ripped (confidence 3) [B6B9ACA9]
Copy OK

Track 10

Filename V:\Pedro\Thelonious Monk - Solo Monk (1964-65)\10 - I Should Care.wav

Pre-gap length 0:00:02.16

Peak level 99.8 %
Track quality 100.0 %
Test CRC 550547F7
Copy CRC 550547F7
Accurately ripped (confidence 3) [C4B95A28]
Copy OK

Track 11

Filename V:\Pedro\Thelonious Monk - Solo Monk (1964-65)\11 - Ask Me Now (Take 2).wav

Pre-gap length 0:00:02.80

Peak level 99.8 %
Track quality 100.0 %
Test CRC 47A5FBBC
Copy CRC 47A5FBBC
Accurately ripped (confidence 3) [088179D5]
Copy OK

Track 12

Filename V:\Pedro\Thelonious Monk - Solo Monk (1964-65)\12 - These Foolish Things (Remind Me Of You).wav

Pre-gap length 0:00:02.73

Peak level 99.9 %
Track quality 100.0 %
Test CRC 8D5376CF
Copy CRC 8D5376CF
Accurately ripped (confidence 3) [E165B8C5]
Copy OK

Track 13

Filename V:\Pedro\Thelonious Monk - Solo Monk (1964-65)\13 - Introspection.wav

Pre-gap length 0:00:02.00

Peak level 99.8 %
Track quality 100.0 %
Test CRC 210D1C92
Copy CRC 210D1C92
Accurately ripped (confidence 3) [7F8274C4]
Copy OK

Track 14

Filename V:\Pedro\Thelonious Monk - Solo Monk (1964-65)\14 - Darn That Dream.wav

Pre-gap length 0:00:02.70

Peak level 99.8 %
Track quality 100.0 %
Test CRC BE2A2597
Copy CRC BE2A2597
Accurately ripped (confidence 3) [6EA246DD]
Copy OK

Track 15

Filename V:\Pedro\Thelonious Monk - Solo Monk (1964-65)\15 - Dinah (Take 1).wav

Pre-gap length 0:00:02.36

Peak level 99.8 %
Track quality 99.9 %
Test CRC 27B03137
Copy CRC 27B03137
Accurately ripped (confidence 3) [69476D14]
Copy OK

Track 16

Filename V:\Pedro\Thelonious Monk - Solo Monk (1964-65)\16 - Sweet And Lovely (Take 1).wav

Pre-gap length 0:00:02.60

Peak level 99.8 %
Track quality 100.0 %
Test CRC B1C6598B
Copy CRC B1C6598B
Accurately ripped (confidence 3) [727D7349]
Copy OK

Track 17

Filename V:\Pedro\Thelonious Monk - Solo Monk (1964-65)\17 - Ruby, My Dear (Take 1).wav

Pre-gap length 0:00:02.04

Peak level 99.8 %
Track quality 100.0 %
Test CRC BCE8015F
Copy CRC BCE8015F
Accurately ripped (confidence 3) [97DEF6DE]
Copy OK

Track 18

Filename V:\Pedro\Thelonious Monk - Solo Monk (1964-65)\18 - I'm Confessin' (That I Love You).wav

Pre-gap length 0:00:03.20

Peak level 99.8 %
Track quality 100.0 %
Test CRC A7ECB02B
Copy CRC A7ECB02B
Accurately ripped (confidence 3) [10CA5E8A]
Copy OK

Track 19

Filename V:\Pedro\Thelonious Monk - Solo Monk (1964-65)\19 - I Hadn't Anyone Till You (Take 2).wav

Pre-gap length 0:00:02.97

Peak level 99.8 %
Track quality 100.0 %
Test CRC C36393AF
Copy CRC C36393AF
Accurately ripped (confidence 3) [085D9A55]
Copy OK

Track 20

Filename V:\Pedro\Thelonious Monk - Solo Monk (1964-65)\20 - Everything Happens To Me (Re-Take 1).wav

Pre-gap length 0:00:03.13

Peak level 99.8 %
Track quality 100.0 %
Test CRC 4809EF26
Copy CRC 4809EF26
Accurately ripped (confidence 3) [BDD25EB1]
Copy OK

Track 21

Filename V:\Pedro\Thelonious Monk - Solo Monk (1964-65)\21 - Ask Me Now (Take 1).wav

Pre-gap length 0:00:01.86

Peak level 99.8 %
Track quality 99.9 %
Test CRC 8785EA08
Copy CRC 8785EA08
Accurately ripped (confidence 3) [5B36CB94]
Copy OK

All tracks accurately ripped

No errors occurred

End of status report


Трекер:  [ 28-Янв-2012 15:01 ]

  

Скачать .torrent

Размер .torrent файла 33 KB


Размер: 367 MB
Хэш (hash) релиза: 4933a40751a96ee9b7fc24aac1633da2de5a615a

Еще никто не оставлял запись к записи скачать торрент Thelonious Monk - Solo Monk - 1964-65, FLAC . Будь первым!

!Обратная связь