Скачать через торрент музыку Michel Petrucciani - Solo Live - 1998, FLAC бесплатно без регистрации torrent

Если у вас наблюдаются проблемы со скриншотами, переходом по ссылками, скачиванием торрентов - проблемы в блокировщике рекламы AdBlock. #хорошегоДня!


Статистика раздачи
Размер:  234 MB   |    Зарегистрирован:  5 лет 8 месяцев   |    .torrent скачан:  36 раз   |   
Раздают:  1  
   
Загрузка...
 
Автор Сообщение

Umakiro

avatar Umakiro


Michel Petrucciani
Solo
Live
Жанр: Post-Bop
Страна-производитель диска: France
Год издания диска: 1998
Издатель (лейбл):
Номер по каталогу: FDM 36597-2
Страна: France
Аудиокодек: FLAC (*.flac)
Тип рипа: tracks+.cue
Битрейт аудио: lossless
Продолжительность: 51:44
Источник (релизер): what.cd
Наличие сканов в содержимом раздачи: да
01. Looking Up (4:25)
02. Besame Mucho (4:03)
03. Rachid (2:22)
05. Home (3:41)
06. Brazilian Like (3:07)
07. Little Piece in C For U (4:12)
08. Romantic But Not Blue (3:22)
09. Trilogy In Blois (Morning Sun, Noon Sun and Night Sun In Blois) (11:29)
10. Caravan (10:08)
11. She Did It Again - Take The A Train - She Did It Again (4:55)

 
Exact Audio Copy V1.0 beta 2 from 29. April 2011

EAC extraction logfile from 17. December 2011, 0:14

Michel Petrucciani / Solo Live

Used drive : PIONEER DVD RW DVR-108 Adapter: 1 ID: 0

Read mode : SecureUtilize accurate stream : YesDefeat audio cache : YesMake use of C2 pointers : No

Read offset correction : 48Overread into Lead-In and Lead-Out : NoFill up missing offset samples with silence : YesDelete leading and trailing silent blocks : NoNull samples used in CRC calculations : YesUsed interface : Installed external ASPI interfaceGap handling : Appended to previous track

Used output format : User Defined EncoderSelected bitrate : 896 kBit/sQuality : HighAdd ID3 tag : NoCommand line compressor : C:\Program Files\Exact Audio Copy\Flac\flac.exeAdditional command line options : -V -8 -T "artist=%artist%" -T "title=%title%" -T "album=%albumtitle%" -T "date=%year%" -T "tracknumber=%tracknr%" -T "genre=%genre%" %source%

TOC of the extracted CD

Track | Start | Length | Start sector | End sector --------------------------------------------------------- 1 | 0:00.00 | 4:25.18 | 0 | 19892 2 | 4:25.18 | 4:02.53 | 19893 | 38095 3 | 8:27.71 | 2:22.22 | 38096 | 48767 4 | 10:50.18 | 4:07.60 | 48768 | 67352 5 | 14:58.03 | 3:40.45 | 67353 | 83897 6 | 18:38.48 | 3:07.10 | 83898 | 97932 7 | 21:45.58 | 4:11.43 | 97933 | 116800 8 | 25:57.26 | 3:21.70 | 116801 | 131945 9 | 29:19.21 | 11:29.37 | 131946 | 183657 10 | 40:48.58 | 10:08.08 | 183658 | 229265 11 | 50:56.66 | 4:55.12 | 229266 | 251402

Track 1

Filename E:\Flac EAC\Michel Petrucciani - Solo Live - 1998\01 - Looking Up.wav

Pre-gap length 0:00:02.00

Peak level 90.9 % Extraction speed 4.0 X Track quality 99.9 % Test CRC 7C1D755A Copy CRC 7C1D755A Accurately ripped (confidence 9) [491F2E4E] (AR v2) Copy OK

Track 2

Filename E:\Flac EAC\Michel Petrucciani - Solo Live - 1998\02 - Besame Mucho.wav

Peak level 72.9 % Extraction speed 4.4 X Track quality 99.9 % Test CRC 5D66D358 Copy CRC 5D66D358 Accurately ripped (confidence 9) [593A4E61] (AR v2) Copy OK

Track 3

Filename E:\Flac EAC\Michel Petrucciani - Solo Live - 1998\03 - Rachid.wav

Peak level 80.8 % Extraction speed 4.8 X Track quality 100.0 % Test CRC 48CCD605 Copy CRC 48CCD605 Accurately ripped (confidence 9) [1AD8E237] (AR v2) Copy OK

Track 4

Filename E:\Flac EAC\Michel Petrucciani - Solo Live - 1998\04 - Chloé Meets Gershwin.wav

Peak level 79.4 % Extraction speed 5.5 X Track quality 100.0 % Test CRC AD91ECCC Copy CRC AD91ECCC Accurately ripped (confidence 9) [A012EFB4] (AR v2) Copy OK

Track 5

Filename E:\Flac EAC\Michel Petrucciani - Solo Live - 1998\05 - Home.wav

Peak level 83.4 % Extraction speed 5.8 X Track quality 100.0 % Test CRC A6FF01CC Copy CRC A6FF01CC Accurately ripped (confidence 9) [60DDA7C6] (AR v2) Copy OK

Track 6

Filename E:\Flac EAC\Michel Petrucciani - Solo Live - 1998\06 - Brazilian Like.wav

Peak level 86.8 % Extraction speed 5.9 X Track quality 100.0 % Test CRC E833E31C Copy CRC E833E31C Accurately ripped (confidence 9) [30BE01BA] (AR v2) Copy OK

Track 7

Filename E:\Flac EAC\Michel Petrucciani - Solo Live - 1998\07 - Little Piece in C For U.wav

Peak level 77.1 % Extraction speed 6.5 X Track quality 100.0 % Test CRC 087F9243 Copy CRC 087F9243 Accurately ripped (confidence 9) [4BC91F03] (AR v2) Copy OK

Track 8

Filename E:\Flac EAC\Michel Petrucciani - Solo Live - 1998\08 - Romantic But Not Blue.wav

Peak level 73.7 % Extraction speed 6.5 X Track quality 100.0 % Test CRC 87E00A1F Copy CRC 87E00A1F Accurately ripped (confidence 9) [B019FED5] (AR v2) Copy OK

Track 9

Filename E:\Flac EAC\Michel Petrucciani - Solo Live - 1998\09 - Trilogy In Blois (Morning Sun, Noon Sun and Night Sun In Blois).wav

Peak level 86.9 % Extraction speed 7.8 X Track quality 100.0 % Test CRC 9DC2CC0B Copy CRC 9DC2CC0B Accurately ripped (confidence 9) [6F3497BF] (AR v2) Copy OK

Track 10

Filename E:\Flac EAC\Michel Petrucciani - Solo Live - 1998\10 - Caravan.wav

Peak level 97.1 % Extraction speed 8.5 X Track quality 100.0 % Test CRC 8A93DD7E Copy CRC 8A93DD7E Accurately ripped (confidence 9) [558929B7] (AR v2) Copy OK

Track 11

Filename E:\Flac EAC\Michel Petrucciani - Solo Live - 1998\11 - She Did It Again - Take The A Train - She Did It Again.wav

Peak level 82.5 % Extraction speed 7.6 X Track quality 99.9 % Test CRC 778D4102 Copy CRC 778D4102 Accurately ripped (confidence 9) [203C035F] (AR v2) Copy OK

All tracks accurately ripped

No errors occurred

End of status report

==== Log checksum DD0DC733CC60F7F8D098BE09F8CB99AD1AAF0B193D85183E845B35A9E817D1A8 ====
 
REM GENRE JazzREM DATE 1998REM DISCID 820D180BREM COMMENT "ExactAudioCopy v1.0b2"FILE "01 - Looking Up.wav" WAVE TRACK 01 AUDIO INDEX 01 00:00:00FILE "02 - Besame Mucho.wav" WAVE TRACK 02 AUDIO INDEX 01 00:00:00FILE "03 - Rachid.wav" WAVE TRACK 03 AUDIO INDEX 01 00:00:00FILE "04 - Chloй Meets Gershwin.wav" WAVE TRACK 04 AUDIO INDEX 01 00:00:00FILE "05 - Home.wav" WAVE TRACK 05 AUDIO INDEX 01 00:00:00FILE "06 - Brazilian Like.wav" WAVE TRACK 06 AUDIO INDEX 01 00:00:00FILE "07 - Little Piece in C For U.wav" WAVE TRACK 07 AUDIO INDEX 01 00:00:00FILE "08 - Romantic But Not Blue.wav" WAVE TRACK 08 AUDIO INDEX 01 00:00:00FILE "09 - Trilogy In Blois (Morning Sun, Noon Sun and Night Sun In Blois).wav" WAVE TRACK 09 AUDIO INDEX 01 00:00:00FILE "10 - Caravan.wav" WAVE TRACK 10 AUDIO INDEX 01 00:00:00FILE "11 - She Did It Again - Take The A Train - She Did It Again.wav" WAVE TRACK 11 AUDIO INDEX 01 00:00:00
 
AUDIOCHECKER v2.0 beta (build 457) - by Dester - opdester@freemail.hu~~~~~~~~~~~~~~~~~~~~~~~~~~~~~~~~~~-=== НЕ РЕДАКТИРУЙТЕ ЭТОТ ФАЙЛ! ===-

Путь: ...\n°01 - Michel Petrucciani - Solo Live - 1998

01 -=- 01 - Looking Up.flac -=- CDDA (100%)02 -=- 02 - Besame Mucho.flac -=- CDDA (100%)03 -=- 03 - Rachid.flac -=- CDDA (100%)04 -=- 04 - Chloe Meets Gershwin.flac -=- ERROR05 -=- 05 - Home.flac -=- CDDA (100%)06 -=- 06 - Brazilian Like.flac -=- CDDA (100%)07 -=- 07 - Little Piece in C For U.flac -=- CDDA (100%)08 -=- 08 - Romantic But Not Blue.flac -=- CDDA (100%)09 -=- 09 - Trilogy In Blois (Morning Sun, Noon Sun and Night Sun In Blois).flac -=- CDDA (100%)10 -=- 10 - Caravan.flac -=- CDDA (100%)11 -=- 11 - She Did It Again - Take The A Train - She Did It Again.flac -=- CDDA (100%)

Сводка 100,00% CDDA

182421844


Трекер:  [ 28-Янв-2012 15:00 ]

  

Скачать .torrent

Размер .torrent файла 20 KB


Размер: 234 MB
Хэш (hash) релиза: f80fd0e3814565a378c2fb795aa576f28297ab41

Еще никто не оставлял запись к записи скачать торрент Michel Petrucciani - Solo Live - 1998, FLAC . Будь первым!

!Обратная связь