Скачать через торрент музыку Louie Bellson Big Band - Dynamite! бесплатно без регистрации torrent

Если у вас наблюдаются проблемы со скриншотами, переходом по ссылками, скачиванием торрентов - проблемы в блокировщике рекламы AdBlock. #хорошегоДня!


Статистика раздачи
Размер:  292 MB   |    Зарегистрирован:  5 лет 8 месяцев   |    .torrent скачан:  25 раз   |   
Раздают:  1  
   
Загрузка...
 
Автор Сообщение

Umakiro

avatar Umakiro


•Louie Bellson Big Band - Dynamite! (1979)•

Жанр: Bop, Big Band
Страна-производитель диска: USA
Год издания диска: 1980
Издатель (лейбл): Concord Jazz
Номер по каталогу: CCD-4105
Аудиокодек: FLAC (*.flac)
Тип рипа: tracks+.cue
Битрейт аудио: lossless
Продолжительность: 00:47:54
Источник (релизер): Рип с диска.
Наличие сканов в содержимом раздачи: да

Треклист:

01. Sambandrea Swing (7:03)
02. Deliverance (8:14)
03. Concord Blues For Blue (8:23)
04. Cinderella's Waltz (5:33)
05. Where Did You Go? (6:42)
06. Explosion (11:59)
 
Exact Audio Copy V1.0 beta 3 from 29. August 2011

Отчёт EAC об извлечении, выполненном 25. января 2012, 12:44

Louie Bellson Big Band / Dynamite!

Дисковод: TSSTcorpCDDVDW SH-S223C Adapter: 5 ID: 0

Режим чтения : ДостоверностьИспользование точного потока : ДаОтключение кэша аудио : ДаИспользование указателей C2 : Нет

Коррекция смещения при чтении : 697Способность читать области Lead-in и Lead-out : НетЗаполнение пропущенных сэмплов тишиной : ДаУдаление блоков с тишиной в начале и конце : НетПри вычислениях CRC использовались нулевые сэмплы : ДаИнтерфейс : Установленный внешний ASPI-интерфейсОбработка зазоров : Добавлено к предыдущему треку

Выходной формат : Пользовательский кодировщикВыбранный битрейт : 128 kBit/sКачество : ВысокийДобавление ID3-тега : НетУтилита сжатия : C:\Program Files\Exact Audio Copy\Flac\flac.exeДополнительные параметры : -V -8 -T "Genre=%genre%" -T "Artist=%artist%" -T "Title=%title%" -T "Album=%albumtitle%" -T "Date=%year%" -T "Tracknumber=%tracknr%" -T "Comment=%comment%" %source%

TOC извлечённого CD

Трек | Старт | Длительность | Начальный сектор | Конечный сектор --------------------------------------------------------------------- 1 | 0:00.00 | 7:02.45 | 0 | 31694 2 | 7:02.45 | 8:14.10 | 31695 | 68754 3 | 15:16.55 | 8:23.33 | 68755 | 106512 4 | 23:40.13 | 5:33.07 | 106513 | 131494 5 | 29:13.20 | 6:41.43 | 131495 | 161612 6 | 35:54.63 | 11:59.37 | 161613 | 215574

Трек 1

Имя файла C:\Шахматы\1980.Louie Bellson Big Band - Dynamite!\01. Sambandrea Swing.wav

Длина предзазора 0:00:02.00

Пиковый уровень 95.3 % Скорость извлечения 2.1 X Качество трека 99.9 % CRC теста 844DF602 CRC копии 844DF602 Точность не определена (достоверность 3) [5FFB0893], AccurateRip вернул [8E26F532] (AR v2) Копирование... OK

Трек 2

Имя файла C:\Шахматы\1980.Louie Bellson Big Band - Dynamite!\02. Deliverance.wav

Пиковый уровень 84.0 % Скорость извлечения 2.7 X Качество трека 100.0 % CRC теста 275D67A2 CRC копии 275D67A2 Точность не определена (достоверность 3) [16AABF84], AccurateRip вернул [5CB1DC57] (AR v2) Копирование... OK

Трек 3

Имя файла C:\Шахматы\1980.Louie Bellson Big Band - Dynamite!\03. Concord Blues for Blue.wav

Пиковый уровень 87.7 % Скорость извлечения 3.1 X Качество трека 100.0 % CRC теста 0FF67691 CRC копии 0FF67691 Точность не определена (достоверность 3) [898335EA], AccurateRip вернул [874337DA] (AR v2) Копирование... OK

Трек 4

Имя файла C:\Шахматы\1980.Louie Bellson Big Band - Dynamite!\04. Cinderella's Waltz.wav

Пиковый уровень 92.0 % Скорость извлечения 3.2 X Качество трека 100.0 % CRC теста A35523F4 CRC копии A35523F4 Точность не определена (достоверность 3) [B800512D], AccurateRip вернул [292766BA] (AR v2) Копирование... OK

Трек 5

Имя файла C:\Шахматы\1980.Louie Bellson Big Band - Dynamite!\05. Where Did You Go.wav

Пиковый уровень 90.8 % Скорость извлечения 3.5 X Качество трека 100.0 % CRC теста 08B80945 CRC копии 08B80945 Точность не определена (достоверность 3) [4AD56E32], AccurateRip вернул [35CDF090] (AR v2) Копирование... OK

Трек 6

Имя файла C:\Шахматы\1980.Louie Bellson Big Band - Dynamite!\06. Explosion.wav

Пиковый уровень 94.2 % Скорость извлечения 3.9 X Качество трека 100.0 % CRC теста C4B16FBE CRC копии C4B16FBE Точность не определена (достоверность 2) [8EBDB77F], AccurateRip вернул [1314F70A] (AR v2) Копирование... OK

Ни один трек не прошёл проверки на точностьВ вашей базе может быть иной вариант штамповки диска

Ошибок не произошло

Конец отчёта

==== Контрольная сумма отчёта F445DAB99D81AF4367ABB671091CDC4361990C9CAB8D5347A47C49561FCEFE2E ====
 
REM GENRE "Big Band"REM DATE 1980REM DISCID 470B3A06REM COMMENT "ExactAudioCopy v1.0b3"CATALOG 4105000000000PERFORMER "Louie Bellson Big Band"TITLE "Dynamite!"FILE "01. Sambandrea Swing.wav" WAVE TRACK 01 AUDIO TITLE "Sambandrea Swing" PERFORMER "Louie Bellson Big Band" INDEX 01 00:00:00FILE "02. Deliverance.wav" WAVE TRACK 02 AUDIO TITLE "Deliverance" PERFORMER "Louie Bellson Big Band" INDEX 01 00:00:00FILE "03. Concord Blues for Blue.wav" WAVE TRACK 03 AUDIO TITLE "Concord Blues for Blue" PERFORMER "Louie Bellson Big Band" INDEX 01 00:00:00FILE "04. Cinderella's Waltz.wav" WAVE TRACK 04 AUDIO TITLE "Cinderella's Waltz" PERFORMER "Louie Bellson Big Band" INDEX 01 00:00:00FILE "05. Where Did You Go.wav" WAVE TRACK 05 AUDIO TITLE "Where Did You Go?" PERFORMER "Louie Bellson Big Band" INDEX 01 00:00:00FILE "06. Explosion.wav" WAVE TRACK 06 AUDIO TITLE "Explosion" PERFORMER "Louie Bellson Big Band" INDEX 01 00:00:00
Louie Bellson (drums); John Chiodini (guitar); Dick Spencer (flute, piccolo, clarinet, saxophone); Matt Catingub (flute, clarinet, alto saxophone); Phil Edwards (recorder); Don Menza, Gordon Goodwin (tenor saxophone); Andrew MacKintosh (baritone saxophone); Walt Johnson , Nelson Hatt, John Thomas , Ron King, Bobby Shew (trumpet, flugelhorn); Dana Hughes, Alan Kaplan, Nick Dimaio, Bob Payne (trombone); Frank Collett (piano); Jack Arnold (vibraphone, percussion); John Williams (electric bass).


Трекер:  [ 28-Янв-2012 14:59 ]

  

Скачать .torrent

Размер .torrent файла 12 KB


Размер: 292 MB
Хэш (hash) релиза: a5724d5880b149fc1b14e4ff3a04d013b5db1a33

Еще никто не оставлял запись к записи скачать торрент Louie Bellson Big Band - Dynamite! . Будь первым!

!Обратная связь