Скачать через торрент музыку Zoot Sims - Down Home бесплатно без регистрации torrent

Если у вас наблюдаются проблемы со скриншотами, переходом по ссылками, скачиванием торрентов - проблемы в блокировщике рекламы AdBlock. #хорошегоДня!


Статистика раздачи
Размер:  252 MB   |    Зарегистрирован:  5 лет 8 месяцев   |    .torrent скачан:  36 раз   |   
Раздают:  1  
   
Загрузка...
 
Автор Сообщение

Umakiro

avatar Umakiro


•Zoot Sims - Down Home (1960)•

Жанр: Bop, Mainstream Jazz
Год издания диска: 2005
Издатель (лейбл): Charly
Аудиокодек: FLAC (*.flac)
Тип рипа: image+.cue
Битрейт аудио: lossless
Продолжительность: 00:41:42
Источник (релизер): janwal46
Наличие сканов в содержимом раздачи: нет

Треклист:

01. Jive at Five
02. Doggin' Around
03. Avalon
04. I Cried for You
05. Bill Bailey Won't You Please Come Home
06. Goodnight, Sweetheart
07. There'll Be Some Changes Made
08. I've Heard That Blues Before


Personnel:

Zoot Sims - Tenor Saxophone
Dave McKenna - Piano
George Tucker - Bass
Dannie Richmond – DrumsRecorded in New York City, July, 1960.
 
Exact Audio Copy V0.99 prebeta 5 from 4. May 2009

EAC extraction logfile from 25. March 2010, 13:36

Zoot Sims / Down Home

Used drive : Optiarc DVD RW AD-7173A Adapter: 1 ID: 1

Read mode : SecureUtilize accurate stream : YesDefeat audio cache : YesMake use of C2 pointers : No

Read offset correction : 48Overread into Lead-In and Lead-Out : NoFill up missing offset samples with silence : YesDelete leading and trailing silent blocks : NoNull samples used in CRC calculations : YesUsed interface : Native Win32 interface for Win NT & 2000

Used output format : Internal WAV RoutinesSample format : 44.100 Hz; 16 Bit; Stereo

TOC of the extracted CD

Track | Start | Length | Start sector | End sector --------------------------------------------------------- 1 | 0:00.32 | 5:18.55 | 32 | 23936 2 | 5:19.12 | 4:38.55 | 23937 | 44841 3 | 9:57.67 | 4:28.30 | 44842 | 64971 4 | 14:26.22 | 6:50.03 | 64972 | 95724 5 | 21:16.25 | 5:16.10 | 95725 | 119434 6 | 26:32.35 | 4:22.20 | 119435 | 139104 7 | 30:54.55 | 5:23.57 | 139105 | 163386 8 | 36:18.37 | 5:24.60 | 163387 | 187746

Range status and errors

Selected range

Filename F:\AVAXHOME\Zoot Sims - Down Home (1960)\Zoot Sims - Down Home.wav

Peak level 100.0 % Range quality 100.0 % Copy CRC 2CF96266 Copy OK

No errors occurred

AccurateRip summary

Track 1 not present in databaseTrack 2 not present in databaseTrack 3 not present in databaseTrack 4 not present in databaseTrack 5 not present in databaseTrack 6 not present in databaseTrack 7 not present in databaseTrack 8 not present in database

None of the tracks are present in the AccurateRip database

End of status report
 
REM GENRE JazzREM DATE 1960REM DISCID 7909C708REM COMMENT "ExactAudioCopy v0.99pb5"PERFORMER "Zoot Sims"TITLE "Down Home"FILE "Zoot Sims - Down Home.wav" WAVE TRACK 01 AUDIO TITLE "Jive At Five" PERFORMER "Zoot Sims" INDEX 00 00:00:00 INDEX 01 00:00:32 TRACK 02 AUDIO TITLE "Doggin' Around" PERFORMER "Zoot Sims" INDEX 00 05:16:15 INDEX 01 05:19:12 TRACK 03 AUDIO TITLE "Avalon" PERFORMER "Zoot Sims" INDEX 00 09:54:72 INDEX 01 09:57:67 TRACK 04 AUDIO TITLE "I Cried For You" PERFORMER "Zoot Sims" INDEX 00 14:23:50 INDEX 01 14:26:22 TRACK 05 AUDIO TITLE "Bill Bailey Won't You Please Come Home" PERFORMER "Zoot Sims" INDEX 00 21:13:67 INDEX 01 21:16:25 TRACK 06 AUDIO TITLE "Goodnight, Sweetheart" PERFORMER "Zoot Sims" INDEX 00 26:30:27 INDEX 01 26:32:35 TRACK 07 AUDIO TITLE "There'll Be Some Changes Made" PERFORMER "Zoot Sims" INDEX 00 30:51:55 INDEX 01 30:54:55 TRACK 08 AUDIO TITLE "I've Heard That Blues Before" PERFORMER "Zoot Sims" INDEX 00 36:13:50 INDEX 01 36:18:37


Трекер:  [ 28-Янв-2012 14:57 ]

  

Скачать .torrent

Размер .torrent файла 20 KB


Размер: 252 MB
Хэш (hash) релиза: 51ee2058bac7067689717d486e7840107ca16154

Еще никто не оставлял запись к записи скачать торрент Zoot Sims - Down Home . Будь первым!

!Обратная связь