Скачать через торрент музыку Out Of The Blue - Inside Track - 1987, FLAC бесплатно без регистрации torrent

Если у вас наблюдаются проблемы со скриншотами, переходом по ссылками, скачиванием торрентов - проблемы в блокировщике рекламы AdBlock. #хорошегоДня!


Статистика раздачи
Размер:  251 MB   |    Зарегистрирован:  5 лет 8 месяцев   |    .torrent скачан:  22 раза   |   
Раздают:  1  
   
Загрузка...
 
Автор Сообщение

Umakiro

avatar Umakiro


•Out Of The Blue - Inside Track•

Жанр: Post-Bop
Страна-производитель диска: Japan
Год издания диска: 1987
Издатель (лейбл): Blue Note
Номер по каталогу: CDP 7 46395 2
Аудиокодек: FLAC (*.flac)
Тип рипа: image+.cue
Битрейт аудио: lossless
Продолжительность: 00:44:51
Источник (релизер): janwal46
Наличие сканов в содержимом раздачи: да

Треклист:

01. Inside Track
02. Cherry Pickens
03. Hot House
04. E Force
05. Nathan Jones
06. Isolation
07. Elevation


Personnel:

Michael Phillip Mossman - Trumpet
Kenny Garrett - Alto Saxophone
Ralph Bowen - Tenor Saxophone
Harry Pickens - Piano
Bob Hurst - Bass
Ralph Peterson – Drums
 
Exact Audio Copy V0.99 prebeta 5 from 4. May 2009

EAC extraction logfile from 25. October 2009, 9:54

Out Of The Blue (OTB) / Inside Track

Used drive : _NEC DVD_RW ND-3520A Adapter: 1 ID: 1

Read mode : SecureUtilize accurate stream : YesDefeat audio cache : YesMake use of C2 pointers : No

Read offset correction : 48Overread into Lead-In and Lead-Out : NoFill up missing offset samples with silence : YesDelete leading and trailing silent blocks : NoNull samples used in CRC calculations : NoUsed interface : Native Win32 interface for Win NT & 2000

Used output format : Internal WAV RoutinesSample format : 44.100 Hz; 16 Bit; Stereo

TOC of the extracted CD

Track | Start | Length | Start sector | End sector --------------------------------------------------------- 1 | 0:00.00 | 5:45.65 | 0 | 25939 2 | 5:45.65 | 6:22.52 | 25940 | 54641 3 | 12:08.42 | 6:37.08 | 54642 | 84424 4 | 18:45.50 | 5:14.62 | 84425 | 108036 5 | 24:00.37 | 7:40.65 | 108037 | 142601 6 | 31:41.27 | 7:01.08 | 142602 | 174184 7 | 38:42.35 | 6:08.50 | 174185 | 201834

Range status and errors

Selected range

Filename F:\AVAXHOME\Out Of The Blue (OTB) - Inside Track (1987)\Out Of The Blue (OTB) - Inside Track.wav

Peak level 98.3 % Range quality 100.0 % Copy CRC 0DD1BEEE Copy OK

No errors occurred

AccurateRip summary

Track 1 accurately ripped (confidence 2) [3CBFE71D]Track 2 accurately ripped (confidence 2) [43ABF447]Track 3 accurately ripped (confidence 2) [24A720FB]Track 4 accurately ripped (confidence 2) [36A82D7D]Track 5 accurately ripped (confidence 2) [1AC4B1B4]Track 6 accurately ripped (confidence 2) [9703B7F8]Track 7 accurately ripped (confidence 2) [00211FA1]

All tracks accurately ripped

End of status report
 
REM GENRE JazzREM DATE 1987REM DISCID 480A8307REM COMMENT "ExactAudioCopy v0.99pb5"PERFORMER "Out Of The Blue (OTB)"TITLE "Inside Track"FILE "Out Of The Blue (OTB) - Inside Track.wav" WAVE TRACK 01 AUDIO TITLE "Inside track" PERFORMER "Out Of The Blue (OTB)" INDEX 01 00:00:00 TRACK 02 AUDIO TITLE "Cherry Pickens" PERFORMER "Out Of The Blue (OTB)" INDEX 00 05:44:37 INDEX 01 05:45:65 TRACK 03 AUDIO TITLE "Hot House" PERFORMER "Out Of The Blue (OTB)" INDEX 00 12:07:22 INDEX 01 12:08:42 TRACK 04 AUDIO TITLE "E force" PERFORMER "Out Of The Blue (OTB)" INDEX 00 18:45:47 INDEX 01 18:45:50 TRACK 05 AUDIO TITLE "Nathan Jones" PERFORMER "Out Of The Blue (OTB)" INDEX 00 23:58:45 INDEX 01 24:00:37 TRACK 06 AUDIO TITLE "Isolation" PERFORMER "Out Of The Blue (OTB)" INDEX 00 31:40:27 INDEX 01 31:41:27 TRACK 07 AUDIO TITLE "Elevation" PERFORMER "Out Of The Blue (OTB)" INDEX 00 38:41:67 INDEX 01 38:42:35


Трекер:  [ 28-Янв-2012 14:57 ]

  

Скачать .torrent

Размер .torrent файла 20 KB


Размер: 251 MB
Хэш (hash) релиза: ee496ceecae6c260c335df994c2b85c32e5b825b

Еще никто не оставлял запись к записи скачать торрент Out Of The Blue - Inside Track - 1987, FLAC . Будь первым!

!Обратная связь