Скачать через торрент музыку Ray Bryant - Alone With the Blues бесплатно без регистрации torrent

Если у вас наблюдаются проблемы со скриншотами, переходом по ссылками, скачиванием торрентов - проблемы в блокировщике рекламы AdBlock. #хорошегоДня!


Статистика раздачи
Размер:  191 MB   |    Зарегистрирован:  5 лет 8 месяцев   |    .torrent скачан:  30 раз   |   
Раздают:  1  
   
Загрузка...
 
Автор Сообщение

Umakiro

avatar Umakiro


•Ray Bryant - Alone With the Blues (1958)•

Жанр: Bop, Mainstream Jazz
Страна-производитель диска: USA
Год издания диска: 1996
Издатель (лейбл): Label: NewJazz/OJC
Номер по каталогу: OJCCD-249-2(NJ-8213)
Аудиокодек: FLAC (*.flac)
Тип рипа: tracks+.cue
Битрейт аудио: lossless
Продолжительность: 00:38:25
Источник (релизер): Oceandrop
Наличие сканов в содержимом раздачи: да

Треклист:

01. Blues #3 - 7:15
02. Joy (Blues #2) - 3:59
03. Lover Man (Oh, Where Can You Be?) - 3:52
04. Me and The Blues (Blues #1) - 5:00
05. My Blues (Blues #5) - 7:40
06. Rockin' Chair - 5:16
07. Stocking Feet - 4:47


Personnel:

Ray Bryant - piano
 
EAC extraction logfile from 28. March 2007, 19:13 for CDRay Bryant / Alone With The Blues

Used drive : HL-DT-STDVDRAM GSA-4163B Adapter: 1 ID: 1Read mode : Secure with NO C2, accurate stream, disable cacheRead offset correction : 667Overread into Lead-In and Lead-Out : No

Used output format : Internal WAV Routines 44.100 Hz; 16 Bit; Stereo

Other options : Fill up missing offset samples with silence : Yes Delete leading and trailing silent blocks : No Installed external ASPI interface

Track 1 Filename D:\Ray Bryant - Alone With The Blues (1958)[FLAC]{OJC}\01 - Blues #3.wav

Pre-gap length 0:00:02.00

Peak level 91.3 % Track quality 100.0 % Test CRC 5AA26DB6 Copy CRC 5AA26DB6 Copy OK

Track 2 Filename D:\Ray Bryant - Alone With The Blues (1958)[FLAC]{OJC}\02 - Joy (Blues #2).wav

Pre-gap length 0:00:02.33

Peak level 84.7 % Track quality 100.0 % Test CRC 5C0FB2C6 Copy CRC 5C0FB2C6 Copy OK

Track 3 Filename D:\Ray Bryant - Alone With The Blues (1958)[FLAC]{OJC}\03 - Lover Man (Oh, Where Can You Be).wav

Pre-gap length 0:00:02.09

Peak level 93.6 % Track quality 100.0 % Test CRC 86472F9E Copy CRC 86472F9E Copy OK

Track 4 Filename D:\Ray Bryant - Alone With The Blues (1958)[FLAC]{OJC}\04 - Me And The Blues (Blues #1).wav

Pre-gap length 0:00:02.35

Peak level 84.2 % Track quality 100.0 % Test CRC AF2CB34D Copy CRC AF2CB34D Copy OK

Track 5 Filename D:\Ray Bryant - Alone With The Blues (1958)[FLAC]{OJC}\05 - My Blues (Blues #5).wav

Pre-gap length 0:00:01.57

Peak level 99.2 % Track quality 100.0 % Test CRC 005BA0B9 Copy CRC 005BA0B9 Copy OK

Track 6 Filename D:\Ray Bryant - Alone With The Blues (1958)[FLAC]{OJC}\06 - Rockin' Chair.wav

Pre-gap length 0:00:02.18

Peak level 90.3 % Track quality 100.0 % Test CRC 0344E1B3 Copy CRC 0344E1B3 Copy OK

Track 7 Filename D:\Ray Bryant - Alone With The Blues (1958)[FLAC]{OJC}\07 - Stocking Feet.wav

Pre-gap length 0:00:02.09

Peak level 91.8 % Track quality 100.0 % Test CRC 501183C8 Copy CRC 501183C8 Copy OK

No errors occured

End of status report
 
REM GENRE JazzREM DATE 1958REM DISCID 56090107REM COMMENT "ExactAudioCopy v0.95b2"PERFORMER "Ray Bryant"TITLE "Alone With The Blues"FILE "01 - Blues #3.wav" WAVE TRACK 01 AUDIO TITLE "Blues #3" PERFORMER "Ray Bryant" INDEX 01 00:00:00 TRACK 02 AUDIO TITLE "Joy (Blues #2)" PERFORMER "Ray Bryant" INDEX 00 07:17:54FILE "02 - Joy (Blues #2).wav" WAVE INDEX 01 00:00:00 TRACK 03 AUDIO TITLE "Lover Man (Oh, Where Can You Be)" PERFORMER "Ray Bryant" INDEX 00 04:01:51FILE "03 - Lover Man (Oh, Where Can You Be).wav" WAVE INDEX 01 00:00:00 TRACK 04 AUDIO TITLE "Me And The Blues (Blues #1)" PERFORMER "Ray Bryant" INDEX 00 03:54:43FILE "04 - Me And The Blues (Blues #1).wav" WAVE INDEX 01 00:00:00 TRACK 05 AUDIO TITLE "My Blues (Blues #5)" PERFORMER "Ray Bryant" INDEX 00 05:02:60FILE "05 - My Blues (Blues #5).wav" WAVE INDEX 01 00:00:00 TRACK 06 AUDIO TITLE "Rockin' Chair" PERFORMER "Ray Bryant" INDEX 00 07:44:52FILE "06 - Rockin' Chair.wav" WAVE INDEX 01 00:00:00 TRACK 07 AUDIO TITLE "Stocking Feet" PERFORMER "Ray Bryant" INDEX 00 05:19:44FILE "07 - Stocking Feet.wav" WAVE INDEX 01 00:00:00


Трекер:  [ 28-Янв-2012 14:55 ]

  

Скачать .torrent

Размер .torrent файла 16 KB


Размер: 191 MB
Хэш (hash) релиза: cc65dd8ad40403fa4c49b1847380797880e3f56c

Еще никто не оставлял запись к записи скачать торрент Ray Bryant - Alone With the Blues . Будь первым!

!Обратная связь