Скачать через торрент музыку Roy Hargrove - Approaching Standards - 1994, FLAC бесплатно без регистрации torrent

Если у вас наблюдаются проблемы со скриншотами, переходом по ссылками, скачиванием торрентов - проблемы в блокировщике рекламы AdBlock. #хорошегоДня!


Статистика раздачи
Размер:  342 MB   |    Зарегистрирован:  5 лет 8 месяцев   |    .torrent скачан:  34 раза   |   
Раздают:  1  
   
Загрузка...
 
Автор Сообщение

Umakiro

avatar Umakiro


Roy Hargrove - Approaching Standards

Жанр: Jazz / Hard Bop
Год выпуска диска: 1994
Производитель диска: РФ
Аудио кодек: FLAC
Тип рипа: image+.cue
Битрейт аудио: lossless
Продолжительность: 1:03:58
Трэклист:

1 Easy To Remember 06:17
2 Ruby, My Dear 06:17
3 Whisper Not 07:31
4 What's New? 05:10
5 September In The Rain 07:23
6 You Don't Know What Love Is 06:20
7 The End Of A Love Affair 08:05
8 Things We Did Last Summer 05:38
9 Everything I Have Is Yours/Dedicated To You 04:48
10 My Shining Hour 06:09
Доп. информация:

Соисполнители:

Al Foster (Drums)
Billy Higgins (Drums)
Christian McBride (Bass)
Frank Lacy (Trombone)
Gregory Hutchinson (Drums)
John Hicks (Piano)
Ran Blake (Soprano Saxophone, Tenor Saxophone)
Rodney Whitaker (Bass)
Scott Colley (Bass)
Stephen Scott (Piano)

Roy Hargrove родился 16 октября 1969 года в США, штат Техас.
С самого детства Roy Hargrove проявил себя музыкально одаренным человеком. Его учитель Dean Hill во многом способствовал музыкальному развитию Роя. В 1987 году Рой встретил человека, который помог ему осуществить мечту - сделать карьеру профессионального музыканта. Этим человеком был Wynton Marsalis, который был поражен музыкальными способностями Роя и рекомендовал его ассистентом для Larry Clothier, благодаря чему Рой побывал во многих странах, а позже стал членом общества New York Jazz и стал привлекаться как сессионный музыкант в различные музыкальные проекты. В 1988 году он стал лучшим джазовым музыкантом года по версии журнала "Down Beat". Выступая на различных музыкальных фестивалях и записывая уже собственные альбомы, Roy Hargrove завоевал себе оглушительный успех в мировом джазе.
Exact Audio Copy V0.99 prebeta 4 from 23. January 2008

EAC extraction logfile from 17. January 2009, 22:15

Roy Hargrove / Approaching Standards

Used drive : Optiarc DVD RW AD-7203S Adapter: 0 ID: 1

Read mode : Secure
Utilize accurate stream : Yes
Defeat audio cache : Yes
Make use of C2 pointers : No

Read offset correction : 48
Overread into Lead-In and Lead-Out : No
Fill up missing offset samples with silence : Yes
Delete leading and trailing silent blocks : No
Null samples used in CRC calculations : Yes
Used interface : Installed external ASPI interface

Used output format : User Defined Encoder
Selected bitrate : 768 kBit/s
Quality : High
Add ID3 tag : No
Command line compressor : C:\Program Files\Exact Audio Copy\FLAC\FLAC.EXE
Additional command line options : -6 -V -T "ARTIST=%a" -T "TITLE=%t" -T "ALBUM=%g" -T "DATE=%y" -T "TRACKNUMBER=%n" -T "GENRE=%m" -T "COMMENT=%e" %s -o %d

TOC of the extracted CD

Track | Start | Length | Start sector | End sector
---------------------------------------------------------
1 | 0:00.00 | 6:12.47 | 0 | 27946
2 | 6:12.47 | 6:13.15 | 27947 | 55936
3 | 12:25.62 | 7:42.28 | 55937 | 90614
4 | 20:08.15 | 5:16.15 | 90615 | 114329
5 | 25:24.30 | 7:34.65 | 114330 | 148444
6 | 32:59.20 | 6:25.60 | 148445 | 177379
7 | 39:25.05 | 8:00.62 | 177380 | 213441
8 | 47:25.67 | 5:41.58 | 213442 | 239074
9 | 53:07.50 | 4:49.42 | 239075 | 260791
10 | 57:57.17 | 6:15.50 | 260792 | 288966

Range status and errors

Selected range

Filename E:\Раздачи\Roy Hargrove Approaching Standards\Roy Hargrove - Approaching Standards.wav

Peak level 100.0 %
Range quality 100.0 %
Test CRC CD14518A
Copy CRC CD14518A
Copy OK

No errors occurred

End of status report


Трекер:  [ 28-Янв-2012 14:55 ]

  

Скачать .torrent

Размер .torrent файла 14 KB


Размер: 342 MB
Хэш (hash) релиза: 99fb18ad3d894e24e55bef1c47a47c37a03d4a07

Еще никто не оставлял запись к записи скачать торрент Roy Hargrove - Approaching Standards - 1994, FLAC . Будь первым!

!Обратная связь