Скачать через торрент музыку Steve Kuhn - Seasons of Romance - 1999, FLAC бесплатно без регистрации torrent

Если у вас наблюдаются проблемы со скриншотами, переходом по ссылками, скачиванием торрентов - проблемы в блокировщике рекламы AdBlock. #хорошегоДня!


Статистика раздачи
Размер:  302 MB   |    Зарегистрирован:  5 лет 8 месяцев   |    .torrent скачан:  32 раза   |   
Раздают:  1  
   
Загрузка...
 
Автор Сообщение

Umakiro

avatar Umakiro


Steve Kuhn - Seasons of Romance

Жанр: Post-Bop, Piano Jazz
Страна-производитель диска: USA
Год издания диска: 1999
Издатель (лейбл): Postcards
Страна: USA
Аудиокодек: FLAC (*.flac)
Тип рипа: image+.cue
Битрейт аудио: lossless
Продолжительность: 52:47
Источник (релизер): CD
Наличие сканов в содержимом раздачи: нет

Треклист:
01 Six Guns
02 Romance
03 Visions of Gaudi
04 There Is No Greater Love
05 The Pawnbroker
06 Remember
07 Clotilde
08 Good Morning Heartache
09 Looking Back

Recorded on April 12 and 13, 1995, at Sound on Sound, New York City.
 
Exact Audio Copy V0.99 prebeta 5 from 4. May 2009

EAC extraction logfile from 26. January 2012, 17:03

Steve Kuhn / Seasons of Romance

Used drive : HL-DT-STDVDRAM GH22NS40 Adapter: 0 ID: 0

Read mode : SecureUtilize accurate stream : YesDefeat audio cache : YesMake use of C2 pointers : No

Read offset correction : 667Overread into Lead-In and Lead-Out : NoFill up missing offset samples with silence : YesDelete leading and trailing silent blocks : NoNull samples used in CRC calculations : YesUsed interface : Native Win32 interface for Win NT & 2000

Used output format : User Defined EncoderSelected bitrate : 768 kBit/sQuality : HighAdd ID3 tag : NoCommand line compressor : C:\Program Files\Exact Audio Copy\FLAC\FLAC.EXEAdditional command line options : -8 -V %s

TOC of the extracted CD

Track | Start | Length | Start sector | End sector --------------------------------------------------------- 1 | 0:00.00 | 4:58.17 | 0 | 22366 2 | 4:58.17 | 4:12.45 | 22367 | 41311 3 | 9:10.62 | 5:26.40 | 41312 | 65801 4 | 14:37.27 | 9:11.35 | 65802 | 107161 5 | 23:48.62 | 5:58.40 | 107162 | 134051 6 | 29:47.27 | 6:05.53 | 134052 | 161479 7 | 35:53.05 | 6:16.05 | 161480 | 189684 8 | 42:09.10 | 5:35.24 | 189685 | 214833 9 | 47:44.34 | 5:02.06 | 214834 | 237489

Range status and errors

Selected range

Filename D:\EAC\Steve Kuhn - Seasons of Romance.wav

Peak level 99.8 % Range quality 100.0 % Test CRC AFD6FA5A Copy CRC AFD6FA5A Copy OK

No errors occurred

End of status report
 
REM GENRE "Contemporary Jazz"REM DATE 1995REM DISCID 780C5E09REM COMMENT "ExactAudioCopy v0.99pb5"PERFORMER "Steve Kuhn"TITLE "Seasons of Romance"FILE "Steve Kuhn - Seasons of Romance.flac" WAVE TRACK 01 AUDIO TITLE "Six Guns" PERFORMER "Steve Kuhn" INDEX 01 00:00:00 TRACK 02 AUDIO TITLE "Romance" PERFORMER "Steve Kuhn" INDEX 00 04:57:15 INDEX 01 04:58:17 TRACK 03 AUDIO TITLE "Visions of Gaudi" PERFORMER "Steve Kuhn" INDEX 00 09:08:52 INDEX 01 09:10:62 TRACK 04 AUDIO TITLE "There Is No Greater Love" PERFORMER "Steve Kuhn" INDEX 01 14:37:27 TRACK 05 AUDIO TITLE "The Pawnbroker" PERFORMER "Steve Kuhn" INDEX 01 23:48:62 TRACK 06 AUDIO TITLE "Remember" PERFORMER "Steve Kuhn" INDEX 00 29:46:00 INDEX 01 29:47:27 TRACK 07 AUDIO TITLE "Clotilde" PERFORMER "Steve Kuhn" INDEX 00 35:50:67 INDEX 01 35:53:05 TRACK 08 AUDIO TITLE "Good Morning Heartache" PERFORMER "Steve Kuhn" INDEX 01 42:09:10 TRACK 09 AUDIO TITLE "Looking Back" PERFORMER "Steve Kuhn" INDEX 00 47:42:37 INDEX 01 47:44:34
Steve Kuhn - piano
Tom Harrell - trumpet (on tracks #3,6 & 9)
Bon Mintzer - tenor sax (on tracks #1,5 & 7)
George Mraz - bass
Al Foster - drums


Трекер:  [ 28-Янв-2012 14:54 ]

  

Скачать .torrent

Размер .torrent файла 12 KB


Размер: 302 MB
Хэш (hash) релиза: 59f5d1672a7d4fdf684dfaaf359fdcd18c3ff7c5

Еще никто не оставлял запись к записи скачать торрент Steve Kuhn - Seasons of Romance - 1999, FLAC . Будь первым!

!Обратная связь