Скачать через торрент музыку Antonio Farao - Next Stories - 2011, FLAC бесплатно без регистрации torrent

Если у вас наблюдаются проблемы со скриншотами, переходом по ссылками, скачиванием торрентов - проблемы в блокировщике рекламы AdBlock. #хорошегоДня!


Статистика раздачи
Размер:  313 MB   |    Зарегистрирован:  5 лет 8 месяцев   |    .torrent скачан:  25 раз   |   
Раздают:  1  
   
Загрузка...
 
Автор Сообщение

Umakiro

avatar Umakiro


Antonio Faraò - Next Stories

Жанр: Post-Bop
Страна-производитель диска: Germany
Год издания диска: 2011
Издатель (лейбл): Enja Records
Номер по каталогу: ENJ-9430 2
Страна: Italy Rome
Аудиокодек: FLAC (*.flac)
Тип рипа: image+.cue
Битрейт аудио: lossless
Продолжительность: 00:49:27
Источник (релизер): into
Наличие сканов в содержимом раздачи: да
01. I'm Waiting [05:12]
02. Theme For Bond [09:40]
03. Creole [04:30]
04. Sweet [04:04]
05. Next Stories [07:29]
06. I Could Have Done More [04:40]
07. What Is This Thing Called Love [04:03]
08. Few Days [06:40]
09. Sabrina And Joseph [03:05]

Recorded at:Tonstudio Bauer, Ludwigsburg, Germany (10/30 - 31/2001)
 
Exact Audio Copy V0.99 prebeta 5 from 4. May 2009

EAC extraction logfile from 23. January 2012, 14:13

Antonio Farao / Next Stories

Used drive : _NEC DVD_RW ND-3500AG Adapter: 0 ID: 0

Read mode : SecureUtilize accurate stream : YesDefeat audio cache : YesMake use of C2 pointers : No

Read offset correction : 48Overread into Lead-In and Lead-Out : NoFill up missing offset samples with silence : YesDelete leading and trailing silent blocks : NoNull samples used in CRC calculations : YesUsed interface : Native Win32 interface for Win NT & 2000

Used output format : User Defined EncoderSelected bitrate : 768 kBit/sQuality : HighAdd ID3 tag : NoCommand line compressor : C:\Program Files\Exact Audio Copy\FLAC\FLAC.EXEAdditional command line options : -6 -V -T "ARTIST=%a" -T "TITLE=%t" -T "ALBUM=%g" -T "DATE=%y" -T "TRACKNUMBER=%n" -T "GENRE=%m" -T "COMMENT=%e" %s -o %d

TOC of the extracted CD

Track | Start | Length | Start sector | End sector --------------------------------------------------------- 1 | 0:00.00 | 5:14.45 | 0 | 23594 2 | 5:14.45 | 9:43.70 | 23595 | 67389 3 | 14:58.40 | 4:34.66 | 67390 | 88005 4 | 19:33.31 | 4:08.02 | 88006 | 106607 5 | 23:41.33 | 7:33.49 | 106608 | 140631 6 | 31:15.07 | 4:44.30 | 140632 | 161961 7 | 35:59.37 | 4:05.44 | 161962 | 180380 8 | 40:05.06 | 6:43.34 | 180381 | 210639 9 | 46:48.40 | 3:05.39 | 210640 | 224553

Range status and errors

Selected range

Filename J:\eMusic\Rip\Antonio Farao - Next Stories.wav

Peak level 94.8 % Range quality 99.9 % Copy CRC 488A171E Copy OK

No errors occurred

AccurateRip summary

Track 1 accurately ripped (confidence 4) [4DB99D89]Track 2 accurately ripped (confidence 4) [330B8FB0]Track 3 accurately ripped (confidence 4) [F729A53A]Track 4 accurately ripped (confidence 4) [9BC4125F]Track 5 accurately ripped (confidence 4) [BD7A1BFB]Track 6 accurately ripped (confidence 4) [CB0D5BC6]Track 7 accurately ripped (confidence 4) [98FE4158]Track 8 accurately ripped (confidence 4) [4CFECF97]Track 9 accurately ripped (confidence 4) [9A424C16]

All tracks accurately ripped

End of status report
 
REM GENRE JazzREM DATE 2002REM DISCID 660BB209REM COMMENT "ExactAudioCopy v0.99pb5"PERFORMER "Antonio Farao"TITLE "Next Stories"FILE "Antonio Farao - Next Stories.flac" WAVE TRACK 01 AUDIO TITLE "I'm Waiting" PERFORMER "Antonio Farao" INDEX 01 00:00:00 TRACK 02 AUDIO TITLE "Theme For Bond" PERFORMER "Antonio Farao" INDEX 00 05:12:11 INDEX 01 05:14:45 TRACK 03 AUDIO TITLE "Creole" PERFORMER "Antonio Farao" INDEX 00 14:55:18 INDEX 01 14:58:40 TRACK 04 AUDIO TITLE "Sweet" PERFORMER "Antonio Farao" INDEX 00 19:28:63 INDEX 01 19:33:31 TRACK 05 AUDIO TITLE "Next Stories" PERFORMER "Antonio Farao" INDEX 00 23:37:68 INDEX 01 23:41:33 TRACK 06 AUDIO TITLE "I Could Have Done More" PERFORMER "Antonio Farao" INDEX 00 31:11:16 INDEX 01 31:15:07 TRACK 07 AUDIO TITLE "What Is This Thing Called Love" PERFORMER "Antonio Farao" INDEX 00 35:55:40 INDEX 01 35:59:37 TRACK 08 AUDIO TITLE "Few Days" PERFORMER "Antonio Farao" INDEX 00 40:02:61 INDEX 01 40:05:06 TRACK 09 AUDIO TITLE "Sabrina And Joseph" PERFORMER "Antonio Farao" INDEX 00 46:45:39 INDEX 01 46:48:40
Antonio Faraò - piano
Ed Howard - bass
Gene Jackson - drums
Pibo Marquez - percussion


Трекер:  [ 28-Янв-2012 14:54 ]

  

Скачать .torrent

Размер .torrent файла 13 KB


Размер: 313 MB
Хэш (hash) релиза: a16f7cf686ab2e9ba6ee51d3e16e8c3543e84967

Еще никто не оставлял запись к записи скачать торрент Antonio Farao - Next Stories - 2011, FLAC . Будь первым!

!Обратная связь