Скачать через торрент музыку Dizzy Gillespie and Stan Getz - Diz and Getz бесплатно без регистрации torrent

Если у вас наблюдаются проблемы со скриншотами, переходом по ссылками, скачиванием торрентов - проблемы в блокировщике рекламы AdBlock. #хорошегоДня!


Статистика раздачи
Размер:  225 MB   |    Зарегистрирован:  5 лет 8 месяцев   |    .torrent скачан:  34 раза   |   
Раздают:  1  
   
Загрузка...
 
Автор Сообщение

Umakiro

avatar Umakiro


Dizzy Gillespie and Stan Getz - Diz and Getz (Remastered 2001)
Жанр: Bop
Страна-производитель диска: EU
Год издания диска: 1955/2001
Издатель (лейбл): Morgan Rec./Vevre Music Group
Номер по каталогу: 549 749-2
Страна: USA
Аудиокодек: FLAC (*.flac)
Тип рипа: image+.cue
Битрейт аудио: lossless
Продолжительность: 47:16
Источник (релизер): Мой рип
Наличие сканов в содержимом раздачи: да
[06:36] 01. It Don't Mean A Thing (If It Ain't Got That Swing)
[06:15] 02. I Let A Song Go Out Of My Heart
[04:57] 03. Exactly Like You
[06:49] 04. It's The Talk Of The Town
[07:46] 05. Impromptu
[03:00] 06. One Alone
[03:15] 07. Girl Of My Dreams
[08:34] 08. Siboney (Parts 1 & 2)
 
Exact Audio Copy V1.0 beta 3 from 29. August 2011

Отчёт EAC об извлечении, выполненном 23. января 2012, 22:14

Dizzy Gillespie And Stan Getz / Diz And Getz

Дисковод: TSSTcorpCDDVDW TS-L633J Adapter: 0 ID: 1

Режим чтения : ДостоверностьИспользование точного потока : ДаОтключение кэша аудио : ДаИспользование указателей C2 : Нет

Коррекция смещения при чтении : 6Способность читать области Lead-in и Lead-out : НетЗаполнение пропущенных сэмплов тишиной : ДаУдаление блоков с тишиной в начале и конце : НетПри вычислениях CRC использовались нулевые сэмплы : ДаИнтерфейс : Встроенный Win32-интерфейс для Win NT/2000

Выходной формат : Пользовательский кодировщикВыбранный битрейт : 1024 kBit/sКачество : ВысокийДобавление ID3-тега : НетУтилита сжатия : C:\Program Files (x86)\Exact Audio Copy\FLAC\FLAC.EXEДополнительные параметры : -8 -V -T "ARTIST=%artist%" -T "TITLE=%title%" -T "ALBUM=%albumtitle%" -T "DATE=%year%" -T "TRACKNUMBER=%tracknr%" -T "GENRE=%genre%" -T "COMMENT=%comment%" -T "BAND=%albuminterpret%" -T "ALBUMARTIST=%albuminterpret%" -T "COMPOSER=%composer%" %haslyrics%--tag-from-file=LYRICS="%lyricsfile%"%haslyrics% -T "DISCNUMBER=%cdnumber%" -T "TOTALDISCS=%totalcds%" -T "TOTALTRACKS=%numtracks%" %hascover%--picture="%coverfile%"%hascover% %source% -o %dest%

TOC извлечённого CD

Трек | Старт | Длительность | Начальный сектор | Конечный сектор --------------------------------------------------------------------- 1 | 0:00.00 | 6:40.30 | 0 | 30029 2 | 6:40.30 | 6:19.32 | 30030 | 58486 3 | 12:59.62 | 5:01.33 | 58487 | 81094 4 | 18:01.20 | 6:55.70 | 81095 | 112289 5 | 24:57.15 | 7:50.67 | 112290 | 147606 6 | 32:48.07 | 3:04.40 | 147607 | 161446 7 | 35:52.47 | 3:19.68 | 161447 | 176439 8 | 39:12.40 | 8:34.70 | 176440 | 215059

Характеристики диапазона извлечения и сообщения об ошибках

Выбранный диапазон

Имя файла D:\Dizzy Gillespie And Stan Getz - Diz And Getz - 1955(lossless)\Dizzy Gillespie And Stan Getz - Diz And Getz.wav

Пиковый уровень 98.9 % Скорость извлечения 2.7 X Качество диапазона 99.9 % CRC теста 3387A88F CRC копии 3387A88F Копирование... OK

Ошибок не произошло

AccurateRip: сводка

Трек 1 : извлечено точно (доверие 3) [917FF884] (AR v2)Трек 2 : извлечено точно (доверие 3) [7C5A083C] (AR v2)Трек 3 : извлечено точно (доверие 3) [C864BAFC] (AR v2)Трек 4 : извлечено точно (доверие 3) [F695D41A] (AR v2)Трек 5 : извлечено точно (доверие 3) [E0BEA402] (AR v2)Трек 6 : извлечено точно (доверие 3) [2BF36B25] (AR v2)Трек 7 : извлечено точно (доверие 3) [DCA5F60D] (AR v2)Трек 8 : извлечено точно (доверие 2) [A73C81ED] (AR v2)

Все треки извлечены точно

Конец отчёта
 
REM GENRE JazzREM DATE 1955REM DISCID 660B3308REM COMMENT "ExactAudioCopy v1.0b3"PERFORMER "Dizzy Gillespie And Stan Getz"TITLE "Diz And Getz"FILE "Dizzy Gillespie And Stan Getz - Diz And Getz.flac" WAVE TRACK 01 AUDIO TITLE "It Don't Mean A Thing (If It Ain't Got That Swing)" PERFORMER "Dizzy Gillespie And Stan Getz" INDEX 01 00:00:00 TRACK 02 AUDIO TITLE "I Let A Song Go Out Of My Heart" PERFORMER "Dizzy Gillespie And Stan Getz" INDEX 00 06:36:27 INDEX 01 06:40:30 TRACK 03 AUDIO TITLE "Exactly Like You" PERFORMER "Dizzy Gillespie And Stan Getz" INDEX 00 12:55:42 INDEX 01 12:59:62 TRACK 04 AUDIO TITLE "It's The Talk Of The Town" PERFORMER "Dizzy Gillespie And Stan Getz" INDEX 00 17:56:62 INDEX 01 18:01:20 TRACK 05 AUDIO TITLE "Impromptu" PERFORMER "Dizzy Gillespie And Stan Getz" INDEX 00 24:51:12 INDEX 01 24:57:15 TRACK 06 AUDIO TITLE "One Alone" PERFORMER "Dizzy Gillespie And Stan Getz" INDEX 00 32:43:37 INDEX 01 32:48:07 TRACK 07 AUDIO TITLE "Girl Of My Dreams" PERFORMER "Dizzy Gillespie And Stan Getz" INDEX 00 35:48:50 INDEX 01 35:52:47 TRACK 08 AUDIO TITLE "Siboney (Parts 1 & 2)" PERFORMER "Dizzy Gillespie And Stan Getz" INDEX 00 39:08:32 INDEX 01 39:12:40 INDEX 02 43:38:60


Digitally remastered by Thomas Ruff (Polygram Studios).
Dizzy Gillespie was at the peak of his powers throughout the 1950s, still the pacesetter among trumpeters. This double CD matches Dizzy with Stan Getz, the Oscar Peterson Trio and drummer Max Roach. Getz, although identified with the "cool" school, thrived on competition and is both relaxed and combative on the uptempo explorations of "It Don't Mean a Thing" and "Impromptu."
Recorded in Los Angeles, California on December 9, 1953 and in New York, New York on May 25, 1954. Includes liner notes by Doug Ramsey.

Digitally remastered by Thomas Ruff (Polygram Studios).
Personnel: Dizzie Gillespie (trumpet); Stan Getz, Hank Mobley (tenor saxophone); Oscar Peterson, Wade Legge (piano); Herb Ellis (guitar); Ray Brown, Lou Hackney (bass); Max Roach, Charlie Persip (drums).


Трекер:  [ 28-Янв-2012 14:53 ]

  

Скачать .torrent

Размер .torrent файла 19 KB


Размер: 225 MB
Хэш (hash) релиза: 1cc9300778b5da59a947d430e7dea01ef582bb85

Еще никто не оставлял запись к записи скачать торрент Dizzy Gillespie and Stan Getz - Diz and Getz . Будь первым!

!Обратная связь