Скачать через торрент музыку David Buchbinder - Shurum Burum Jazz Circus - 2005, FLAC бесплатно без регистрации torrent

Если у вас наблюдаются проблемы со скриншотами, переходом по ссылками, скачиванием торрентов - проблемы в блокировщике рекламы AdBlock. #хорошегоДня!


Статистика раздачи
Размер:  367 MB   |    Зарегистрирован:  5 лет 8 месяцев   |    .torrent скачан:  30 раз   |   
Раздают:  1  
   
Загрузка...
 
Автор Сообщение

Umakiro

avatar Umakiro


David Buchbinder - SHURUM BURUM Jazz Circus

Жанр: Contemporary Jazz, Progressive Jazz, Fusion
Страна-производитель диска: Canada
Год издания диска: 2005
Издатель (лейбл): Monkfish Records
Аудиокодек: FLAC (*.flac)
Тип рипа: tracks+.cue
Битрейт аудио: lossless
Продолжительность: 59:59
Наличие сканов в содержимом раздачи: нет
Источник (релизер): net, thanks funkerman

Треклист:
01 ◆ Overture
02 ◆ Invectus
03 ◆ Portrait of Cagney
04 ◆ Swagger
05 ◆ King Rat
06 ◆ Clubland
07 ◆ Fireplug
08 ◆ Monkfish
09 ◆ Stone of Folly
10 ◆ Samarkand
11 ◆ Sideshow
12 ◆ If Truth Be Told
David Buchbinder trumpet, composer
Pol Cousee soprano, alto & tenor saxophone, bass clarinet, flute
Peter Lutek soprano, tenor & baritone saxophone, clarinet
Perry White soprano & tenor saxophone
Stephen Donald trombone
Greg de Denus piano
Levon Ichkhanian guitar
Rob Clutton bass
Roberto Occhipinti bass (2,7)
Barry Romberg drums
Parmela Attariwala violin
Bridget Lamarche-Brown viola
Carina Reeves cello
 
Exact Audio Copy V1.0 beta 1 from 15. November 2010

EAC extraction logfile from 24. January 2012, 2:15

David`Buchbinder / Shrum Burum Jazz Circus

Used drive : PIONEER DVD-RW DVR-110D Adapter: 0 ID: 0

Read mode : SecureUtilize accurate stream : YesDefeat audio cache : YesMake use of C2 pointers : No

Read offset correction : 48Overread into Lead-In and Lead-Out : NoFill up missing offset samples with silence : YesDelete leading and trailing silent blocks : NoNull samples used in CRC calculations : YesUsed interface : Native Win32 interface for Win NT & 2000Gap handling : Appended to previous track

Used output format : User Defined EncoderSelected bitrate : 896 kBit/sQuality : HighAdd ID3 tag : NoCommand line compressor : C:\Program Files\Exact Audio Copy\Flac\flac.exeAdditional command line options : -V -8 -T "artist=%a" -T "title=%t" -T "album=%g" -T "date=%y" -T "tracknumber=%n" -T "genre=%m" %s

TOC of the extracted CD

Track | Start | Length | Start sector | End sector --------------------------------------------------------- 1 | 0:00.00 | 2:03.57 | 0 | 9281 2 | 2:03.57 | 4:57.73 | 9282 | 31629 3 | 7:01.55 | 3:02.70 | 31630 | 45349 4 | 10:04.50 | 4:20.22 | 45350 | 64871 5 | 14:24.72 | 4:06.35 | 64872 | 83356 6 | 18:31.32 | 5:11.48 | 83357 | 106729 7 | 23:43.05 | 5:04.37 | 106730 | 129566 8 | 28:47.42 | 7:40.65 | 129567 | 164131 9 | 36:28.32 | 7:04.40 | 164132 | 195971 10 | 43:32.72 | 3:35.73 | 195972 | 212169 11 | 47:08.70 | 8:59.42 | 212170 | 252636 12 | 56:08.37 | 3:41.43 | 252637 | 269254

Track 1

Filename E:\EACrips\David`Buchbinder - 2005 - Shrum Burum Jazz Circus\01 - David`Buchbinder - Overture.wav

Pre-gap length 0:00:02.00

Peak level 99.5 % Extraction speed 1.3 X Track quality 100.0 % Test CRC 7D1674F4 Copy CRC 7D1674F4 Accurately ripped (confidence 1) [C11CAF4D] Copy OK

Track 2

Filename E:\EACrips\David`Buchbinder - 2005 - Shrum Burum Jazz Circus\02 - David`Buchbinder - Invectus.wav

Pre-gap length 0:00:01.96

Peak level 96.6 % Extraction speed 1.6 X Track quality 100.0 % Test CRC 74EFE6ED Copy CRC 74EFE6ED Accurately ripped (confidence 1) [B833D020] Copy OK

Track 3

Filename E:\EACrips\David`Buchbinder - 2005 - Shrum Burum Jazz Circus\03 - David`Buchbinder - Portrait of Cagney.wav

Peak level 98.0 % Extraction speed 1.5 X Track quality 99.9 % Test CRC 23331903 Copy CRC 23331903 Accurately ripped (confidence 1) [56102F65] Copy OK

Track 4

Filename E:\EACrips\David`Buchbinder - 2005 - Shrum Burum Jazz Circus\04 - David`Buchbinder - Swagger.wav

Pre-gap length 0:00:02.33

Peak level 96.6 % Extraction speed 1.9 X Track quality 100.0 % Test CRC BB7143D7 Copy CRC BB7143D7 Accurately ripped (confidence 1) [097C0565] Copy OK

Track 5

Filename E:\EACrips\David`Buchbinder - 2005 - Shrum Burum Jazz Circus\05 - David`Buchbinder - King Rat.wav

Pre-gap length 0:00:01.46

Peak level 98.8 % Extraction speed 2.0 X Track quality 100.0 % Test CRC 476A9389 Copy CRC 476A9389 Accurately ripped (confidence 1) [204A40E9] Copy OK

Track 6

Filename E:\EACrips\David`Buchbinder - 2005 - Shrum Burum Jazz Circus\06 - David`Buchbinder - Clubland.wav

Pre-gap length 0:00:00.60

Peak level 98.8 % Extraction speed 2.2 X Track quality 100.0 % Test CRC 0E6B35F7 Copy CRC 0E6B35F7 Accurately ripped (confidence 1) [6844C848] Copy OK

Track 7

Filename E:\EACrips\David`Buchbinder - 2005 - Shrum Burum Jazz Circus\07 - David`Buchbinder - Fireplug.wav

Pre-gap length 0:00:00.66

Peak level 96.6 % Extraction speed 2.1 X Track quality 99.9 % Test CRC EC2ABFDB Copy CRC EC2ABFDB Accurately ripped (confidence 1) [BAC6EEDD] Copy OK

Track 8

Filename E:\EACrips\David`Buchbinder - 2005 - Shrum Burum Jazz Circus\08 - David`Buchbinder - Monkfish.wav

Pre-gap length 0:00:03.62

Peak level 98.8 % Extraction speed 2.5 X Track quality 99.9 % Test CRC E93A9658 Copy CRC E93A9658 Accurately ripped (confidence 1) [F6BF14F5] Copy OK

Track 9

Filename E:\EACrips\David`Buchbinder - 2005 - Shrum Burum Jazz Circus\09 - David`Buchbinder - Stone of Folly.wav

Pre-gap length 0:00:00.76

Peak level 98.8 % Extraction speed 2.2 X Track quality 99.9 % Test CRC E7C043A2 Copy CRC E7C043A2 Accurately ripped (confidence 1) [B41FC200] Copy OK

Track 10

Filename E:\EACrips\David`Buchbinder - 2005 - Shrum Burum Jazz Circus\10 - David`Buchbinder - Samarkand.wav

Peak level 98.8 % Extraction speed 2.7 X Track quality 100.0 % Test CRC 7F33345C Copy CRC 7F33345C Accurately ripped (confidence 1) [91B5CB30] Copy OK

Track 11

Filename E:\EACrips\David`Buchbinder - 2005 - Shrum Burum Jazz Circus\11 - David`Buchbinder - Sideshow.wav

Pre-gap length 0:00:01.97

Peak level 99.4 % Extraction speed 3.1 X Track quality 100.0 % Test CRC 65993779 Copy CRC 65993779 Accurately ripped (confidence 1) [328C2454] Copy OK

Track 12

Filename E:\EACrips\David`Buchbinder - 2005 - Shrum Burum Jazz Circus\12 - David`Buchbinder - If Truth Be Told.wav

Peak level 98.3 % Extraction speed 2.9 X Track quality 100.0 % Test CRC 9B91FCAE Copy CRC 9B91FCAE Accurately ripped (confidence 1) [6C302532] Copy OK

All tracks accurately ripped

No errors occurred

End of status report

==== Log checksum D703B1C90EFF164E318D380DE716F9C3BDEADE6D394C973AABAF3079B3586B69 ====
 
REM GENRE JazzREM DATE 2005REM DISCID 8B0E060CREM COMMENT "ExactAudioCopy v1.0b1"PERFORMER "David`Buchbinder"TITLE "Shrum Burum Jazz Circus"FILE "01 - Overture.flac" WAVE TRACK 01 AUDIO TITLE "Overture" PERFORMER "David`Buchbinder" FLAGS DCP INDEX 01 00:00:00 TRACK 02 AUDIO TITLE "Invectus" PERFORMER "David`Buchbinder" FLAGS DCP INDEX 00 02:01:60FILE "02 - Invectus.flac" WAVE INDEX 01 00:00:00FILE "03 - Portrait of Cagney.flac" WAVE TRACK 03 AUDIO TITLE "Portrait of Cagney" PERFORMER "David`Buchbinder" FLAGS DCP INDEX 01 00:00:00 TRACK 04 AUDIO TITLE "Swagger" PERFORMER "David`Buchbinder" FLAGS DCP INDEX 00 03:00:45FILE "04 - Swagger.flac" WAVE INDEX 01 00:00:00 TRACK 05 AUDIO TITLE "King Rat" PERFORMER "David`Buchbinder" FLAGS DCP INDEX 00 04:18:62FILE "05 - King Rat.flac" WAVE INDEX 01 00:00:00 TRACK 06 AUDIO TITLE "Clubland" PERFORMER "David`Buchbinder" FLAGS DCP INDEX 00 04:05:65FILE "06 - Clubland.flac" WAVE INDEX 01 00:00:00 TRACK 07 AUDIO TITLE "Fireplug" PERFORMER "David`Buchbinder" FLAGS DCP INDEX 00 05:10:73FILE "07 - Fireplug.flac" WAVE INDEX 01 00:00:00 TRACK 08 AUDIO TITLE "Monkfish" PERFORMER "David`Buchbinder" FLAGS DCP INDEX 00 05:00:65FILE "08 - Monkfish.flac" WAVE INDEX 01 00:00:00 TRACK 09 AUDIO TITLE "Stone of Folly" PERFORMER "David`Buchbinder" FLAGS DCP INDEX 00 07:40:08FILE "09 - Stone of Folly.flac" WAVE INDEX 01 00:00:00FILE "10 - Samarkand.flac" WAVE TRACK 10 AUDIO TITLE "Samarkand" PERFORMER "David`Buchbinder" FLAGS DCP INDEX 01 00:00:00 TRACK 11 AUDIO TITLE "Sideshow" PERFORMER "David`Buchbinder" FLAGS DCP INDEX 00 03:34:00FILE "11 - Sideshow.flac" WAVE INDEX 01 00:00:00FILE "12 - If Truth Be Told.flac" WAVE TRACK 12 AUDIO TITLE "If Truth Be Told" PERFORMER "David`Buchbinder" FLAGS DCP INDEX 01 00:00:00
 
AUDIOCHECKER v2.0 beta (build 457) - by Dester - opdester@freemail.hu~~~~~~~~~~~~~~~~~~~~~~~~~~~~~~~~~~

Started at: пятница, 27. 01. 2012. - 0:28.4812 files found

01 -===- C:\Users\пользователь\DoctorWeb\Desktop\David`Buchbinder - Shrum Burum Jazz Circus (2005)\01 - Overture.flac Extracted successfully Conclusion: this track is CDDA with probability 100% Tempfile successfully deleted.

02 -===- C:\Users\пользователь\DoctorWeb\Desktop\David`Buchbinder - Shrum Burum Jazz Circus (2005)\02 - Invectus.flac Extracted successfully Conclusion: this track is CDDA with probability 100% Tempfile successfully deleted.

03 -===- C:\Users\пользователь\DoctorWeb\Desktop\David`Buchbinder - Shrum Burum Jazz Circus (2005)\03 - Portrait of Cagney.flac Extracted successfully Conclusion: this track is CDDA with probability 100% Tempfile successfully deleted.

04 -===- C:\Users\пользователь\DoctorWeb\Desktop\David`Buchbinder - Shrum Burum Jazz Circus (2005)\04 - Swagger.flac Extracted successfully Conclusion: this track is CDDA with probability 100% Tempfile successfully deleted.

05 -===- C:\Users\пользователь\DoctorWeb\Desktop\David`Buchbinder - Shrum Burum Jazz Circus (2005)\05 - King Rat.flac Extracted successfully Conclusion: this track is CDDA with probability 100% Tempfile successfully deleted.

06 -===- C:\Users\пользователь\DoctorWeb\Desktop\David`Buchbinder - Shrum Burum Jazz Circus (2005)\06 - Clubland.flac Extracted successfully Conclusion: this track is CDDA with probability 99% Tempfile successfully deleted.

07 -===- C:\Users\пользователь\DoctorWeb\Desktop\David`Buchbinder - Shrum Burum Jazz Circus (2005)\07 - Fireplug.flac Extracted successfully Conclusion: this track is CDDA with probability 100% Tempfile successfully deleted.

08 -===- C:\Users\пользователь\DoctorWeb\Desktop\David`Buchbinder - Shrum Burum Jazz Circus (2005)\08 - Monkfish.flac Extracted successfully Conclusion: this track is CDDA with probability 100% Tempfile successfully deleted.

09 -===- C:\Users\пользователь\DoctorWeb\Desktop\David`Buchbinder - Shrum Burum Jazz Circus (2005)\09 - Stone of Folly.flac Extracted successfully Conclusion: this track is CDDA with probability 100% Tempfile successfully deleted.

10 -===- C:\Users\пользователь\DoctorWeb\Desktop\David`Buchbinder - Shrum Burum Jazz Circus (2005)\10 - Samarkand.flac Extracted successfully Conclusion: this track is CDDA with probability 99% Tempfile successfully deleted.

11 -===- C:\Users\пользователь\DoctorWeb\Desktop\David`Buchbinder - Shrum Burum Jazz Circus (2005)\11 - Sideshow.flac Extracted successfully Conclusion: this track is CDDA with probability 100% Tempfile successfully deleted.

12 -===- C:\Users\пользователь\DoctorWeb\Desktop\David`Buchbinder - Shrum Burum Jazz Circus (2005)\12 - If Truth Be Told.flac Extracted successfully Conclusion: this track is CDDA with probability 100% Tempfile successfully deleted.

Finished at: пятница, 27. 01. 2012. - 0:35.39 (operation time: 0:06.51)


Трекер:  [ 28-Янв-2012 14:52 ]

  

Скачать .torrent

Размер .torrent файла 15 KB


Размер: 367 MB
Хэш (hash) релиза: f4abfc271066555dffb125864923ecc2d9a18518

Еще никто не оставлял запись к записи скачать торрент David Buchbinder - Shurum Burum Jazz Circus - 2005, FLAC . Будь первым!

!Обратная связь