Скачать через торрент музыку Chico Freeman - The Pied Piper - 1984 бесплатно без регистрации torrent

Если у вас наблюдаются проблемы со скриншотами, переходом по ссылками, скачиванием торрентов - проблемы в блокировщике рекламы AdBlock. #хорошегоДня!


Статистика раздачи
Размер:  251 MB   |    Зарегистрирован:  5 лет 8 месяцев   |    .torrent скачан:  26 раз   |   
Раздают:  1  
   
Загрузка...
 
Автор Сообщение

Umakiro

avatar Umakiro


Chico Freeman - The Pied Piper

Жанр: Post-Bop
Год записи альбома: 1984
Год издания диска: 1986
Издатель (лейбл): BlackHawk Records, Inc.
Номер по каталогу: BKH 508-2
Аудиокодек: FLAC (*.flac)
Тип рипа: tracks+.cue
Битрейт аудио: lossless
Продолжительность: 42:59
Источник: Собственные рипы
Наличие сканов в содержимом раздачи: да

Треклист:

01. The Pied Piper - 6:51
02. The Rose Tattoo - 6:24
03. Blues On The Bottom - 5:50
04. Monk 2000 - 7:11
05. Softly, As In A Morning Sunrise - 8:10
06. Amor Soña Dor - 8:34
.
Chico Freeman - Tenor, Alto, Sopranino & Soprano Saxophones, Bass Clarinet, Bass Flute, C Flute
John Purcell - Alto & Baritone Saxophones, Oboe, Alto Flute, Piccolo
Kenny Kirkland - Piano (tr. 2, 3, 5, 6)
Mark Thompson - Piano (tr. 1, 4)
Cecil McBee - Bass
Elvin Jones - Drums
 
Exact Audio Copy V1.0 beta 3 from 29. August 2011

EAC extraction logfile from 27. January 2012, 17:53

Chico Freeman / The Pied Piper

Used drive : HL-DT-STDVD-RAM GSA-H55N Adapter: 0 ID: 2

Read mode : SecureUtilize accurate stream : YesDefeat audio cache : YesMake use of C2 pointers : No

Read offset correction : 102Overread into Lead-In and Lead-Out : YesFill up missing offset samples with silence : YesDelete leading and trailing silent blocks : NoNull samples used in CRC calculations : YesUsed interface : Native Win32 interface for Win NT & 2000Gap handling : Appended to previous track

Used output format : User Defined EncoderSelected bitrate : 128 kBit/sQuality : HighAdd ID3 tag : NoCommand line compressor : G:\Program Files\Exact Audio Copy\Encoder\flac.exeAdditional command line options : -V -8 -T "Genre=%genre%" -T "Artist=%artist%" -T "Title=%title%" -T "Album=%albumtitle%" -T "Date=%year%" -T "Tracknumber=%tracknr%" -T "Comment=EAC1.0b3 FLAC -8" %source%

TOC of the extracted CD

Track | Start | Length | Start sector | End sector --------------------------------------------------------- 1 | 0:00.00 | 6:50.65 | 0 | 30814 2 | 6:50.65 | 6:24.37 | 30815 | 59651 3 | 13:15.27 | 5:49.43 | 59652 | 85869 4 | 19:04.70 | 7:10.67 | 85870 | 118186 5 | 26:15.62 | 8:09.60 | 118187 | 154921 6 | 34:25.47 | 8:33.63 | 154922 | 193459

Track 1

Filename F:\WAV\01 - The Pied Piper.wav

Pre-gap length 0:00:02.00

Peak level 67.3 % Extraction speed 4.7 X Track quality 100.0 % Test CRC 250FBEA1 Copy CRC 250FBEA1 Accurately ripped (confidence 4) [BA1D9C48] (AR v1) Copy OK

Track 2

Filename F:\WAV\02 - The Rose Tattoo.wav

Pre-gap length 0:00:03.70

Peak level 68.9 % Extraction speed 5.4 X Track quality 100.0 % Test CRC A794F716 Copy CRC A794F716 Accurately ripped (confidence 4) [F4E773D2] (AR v1) Copy OK

Track 3

Filename F:\WAV\03 - Blues On The Bottom.wav

Pre-gap length 0:00:03.50

Peak level 80.1 % Extraction speed 5.4 X Track quality 99.9 % Test CRC 919C517E Copy CRC 919C517E Accurately ripped (confidence 4) [E242D606] (AR v1) Copy OK

Track 4

Filename F:\WAV\04 - Monk 2000.wav

Pre-gap length 0:00:05.38

Peak level 96.2 % Extraction speed 6.5 X Track quality 100.0 % Test CRC 86975DF3 Copy CRC 86975DF3 Accurately ripped (confidence 4) [E772B585] (AR v1) Copy OK

Track 5

Filename F:\WAV\05 - Softly, As In A Morning Sunrise.wav

Pre-gap length 0:00:02.20

Peak level 100.0 % Extraction speed 7.1 X Track quality 100.0 % Test CRC D81BF462 Copy CRC D81BF462 Accurately ripped (confidence 4) [2FDF293E] (AR v1) Copy OK

Track 6

Filename F:\WAV\06 - Amor Sona Dor.wav

Pre-gap length 0:00:03.62

Peak level 80.3 % Extraction speed 3.1 X Track quality 100.0 % Test CRC 264F9B8E Copy CRC 264F9B8E Accurately ripped (confidence 4) [4EED93DB] (AR v1) Copy OK

All tracks accurately ripped

No errors occurred

End of status report

==== Log checksum E94BF0F61C487A2A079BF83CAF3086DDBBFE063F4F25DE8C2ADFCD9E66A19F36 ====
 
REM GENRE JazzREM DATE 1984REM DISCID 4F0A1306REM COMMENT "ExactAudioCopy v1.0b3"PERFORMER "Chico Freeman"TITLE "The Pied Piper"FILE "01 - The Pied Piper.wav" WAVE TRACK 01 AUDIO TITLE "The Pied Piper" PERFORMER "Chico Freeman" INDEX 01 00:00:00 TRACK 02 AUDIO TITLE "The Rose Tattoo" PERFORMER "Chico Freeman" INDEX 00 06:46:70FILE "02 - The Rose Tattoo.wav" WAVE INDEX 01 00:00:00 TRACK 03 AUDIO TITLE "Blues On The Bottom" PERFORMER "Chico Freeman" INDEX 00 06:20:62FILE "03 - Blues On The Bottom.wav" WAVE INDEX 01 00:00:00 TRACK 04 AUDIO TITLE "Monk 2000" PERFORMER "Chico Freeman" INDEX 00 05:44:05FILE "04 - Monk 2000.wav" WAVE INDEX 01 00:00:00 TRACK 05 AUDIO TITLE "Softly, As In A Morning Sunrise" PERFORMER "Chico Freeman" INDEX 00 07:08:47FILE "05 - Softly, As In A Morning Sunrise.wav" WAVE INDEX 01 00:00:00 TRACK 06 AUDIO TITLE "Amor Sona Dor" PERFORMER "Chico Freeman" INDEX 00 08:05:73FILE "06 - Amor Sona Dor.wav" WAVE INDEX 01 00:00:00
Softly, As In A Morning Sunrise

Трекер:  [ 28-Янв-2012 14:51 ]

  

Скачать .torrent

Размер .torrent файла 20 KB


Размер: 251 MB
Хэш (hash) релиза: b75bc411095a626a9882444fd1daed62a3c30c0e

Еще никто не оставлял запись к записи скачать торрент Chico Freeman - The Pied Piper - 1984 . Будь первым!

!Обратная связь