Скачать через торрент музыку Bob Moses - When Elephants Dream Of Music - 1983, FLAC бесплатно без регистрации torrent

Если у вас наблюдаются проблемы со скриншотами, переходом по ссылками, скачиванием торрентов - проблемы в блокировщике рекламы AdBlock. #хорошегоДня!


Статистика раздачи
Размер:  338 MB   |    Зарегистрирован:  5 лет 8 месяцев   |    .torrent скачан:  25 раз   |   
Раздают:  1  
   
Загрузка...
 
Автор Сообщение

Umakiro

avatar Umakiro


Bob Moses - When Elephants Dream Of Music

Жанр: Post-Bop, Progressive Jazz
Страна-производитель диска: US
Год издания диска: 1993
Издатель (лейбл): Gramavision
Номер по каталогу: R2 79491
Страна: US
Аудиокодек: FLAC (*.flac)
Тип рипа: tracks+.cue
Битрейт аудио: lossless
Продолжительность: 66:51
Источник (релизер): waffles.fm
Наличие сканов в содержимом раздачи: нет
Треклист:
1 Trevor 5:00
2 Picolo And Lulu 2:52
3 Everybody Knows When You're Up And In 4:28
4 Lava Flow 9:19
5 Happy To Be Here Today 2:42
6 For Miles 7:11
7 Embraceable Jew 4:55
8 Bugs Bunny 8:28
9 Black Orchid 5:58
10 Disappearing Blues 2:10
11 Ripped Van Winkle 7:22
12 Blame It On The Egg 1:18
13 The River 4:33
 
Exact Audio Copy V1.0 beta 3 from 29. August 2011

EAC extraction logfile from 26. January 2012, 12:04

Bob Moses / When Elephants Dream of Music

Used drive : TSSTcorpCDDVDW SH-S203B Adapter: 3 ID: 2

Read mode : SecureUtilize accurate stream : YesDefeat audio cache : YesMake use of C2 pointers : No

Read offset correction : 6Overread into Lead-In and Lead-Out : NoFill up missing offset samples with silence : YesDelete leading and trailing silent blocks : NoNull samples used in CRC calculations : YesUsed interface : Native Win32 interface for Win NT & 2000Gap handling : Appended to previous track

Used output format : User Defined EncoderSelected bitrate : 896 kBit/sQuality : HighAdd ID3 tag : NoCommand line compressor : C:\Program Files\Exact Audio Copy\Flac\flac.exeAdditional command line options : -8 -V -T "ARTIST=%artist%" -T "TITLE=%title%" -T "ALBUM=%albumtitle%" -T "DATE=%year%" -T "TRACKNUMBER=%tracknr%" -T "GENRE=%genre%" -T "PERFORMER=%albuminterpret%" -T "COMPOSER=%composer%" %haslyrics%--tag-from-file=LYRICS="%lyricsfile%"%haslyrics% -T "ALBUMARTIST=%albumartist%" -T "DISCNUMBER=%cdnumber%" -T "TOTALDISCS=%totalcds%" -T "TOTALTRACKS=%numtracks%" -T "COMMENT=%comment%" %source% -o %dest%

TOC of the extracted CD

Track | Start | Length | Start sector | End sector --------------------------------------------------------- 1 | 0:00.32 | 5:00.63 | 32 | 22594 2 | 5:01.20 | 2:52.45 | 22595 | 35539 3 | 7:53.65 | 4:30.00 | 35540 | 55789 4 | 12:23.65 | 9:21.70 | 55790 | 97934 5 | 21:45.60 | 2:46.42 | 97935 | 110426 6 | 24:32.27 | 7:14.35 | 110427 | 143011 7 | 31:46.62 | 4:57.48 | 143012 | 165334 8 | 36:44.35 | 8:33.55 | 165335 | 203864 9 | 45:18.15 | 5:59.40 | 203865 | 230829 10 | 51:17.55 | 2:12.62 | 230830 | 240791 11 | 53:30.42 | 7:25.65 | 240792 | 274231 12 | 60:56.32 | 1:21.68 | 274232 | 280374 13 | 62:18.25 | 4:33.17 | 280375 | 300866

Track 1

Filename F:\EAC Rips\Bob Moses - When Elephants Dream of Music [FLAC]\01 - Trevor.wav

Pre-gap length 0:00:02.32

Peak level 87.1 % Extraction speed 4.7 X Track quality 100.0 % Copy CRC 0ACABC66 Accurately ripped (confidence 3) [BBA43ED7] (AR v1) Copy OK

Track 2

Filename F:\EAC Rips\Bob Moses - When Elephants Dream of Music [FLAC]\02 - Piccolo and Lulu.wav

Pre-gap length 0:00:00.03

Peak level 98.5 % Extraction speed 5.1 X Track quality 100.0 % Copy CRC 65805557 Accurately ripped (confidence 3) [3DBD2E6D] (AR v1) Copy OK

Track 3

Filename F:\EAC Rips\Bob Moses - When Elephants Dream of Music [FLAC]\03 - Everybody Knows You When You're Up and In.wav

Pre-gap length 0:00:00.28

Peak level 98.6 % Extraction speed 5.8 X Track quality 100.0 % Copy CRC CFFCCF20 Accurately ripped (confidence 3) [95199A0F] (AR v1) Copy OK

Track 4

Filename F:\EAC Rips\Bob Moses - When Elephants Dream of Music [FLAC]\04 - Lava Flow.wav

Pre-gap length 0:00:01.20

Peak level 78.2 % Extraction speed 7.0 X Track quality 100.0 % Copy CRC 6B753845 Accurately ripped (confidence 3) [715FF869] (AR v1) Copy OK

Track 5

Filename F:\EAC Rips\Bob Moses - When Elephants Dream of Music [FLAC]\05 - Happy to be Here Today.wav

Pre-gap length 0:00:01.55

Peak level 48.1 % Extraction speed 6.5 X Track quality 100.0 % Copy CRC A965CA90 Accurately ripped (confidence 3) [178F2C52] (AR v1) Copy OK

Track 6

Filename F:\EAC Rips\Bob Moses - When Elephants Dream of Music [FLAC]\06 - For Miles.wav

Pre-gap length 0:00:03.22

Peak level 95.9 % Extraction speed 7.9 X Track quality 100.0 % Copy CRC D55650E1 Accurately ripped (confidence 3) [18B9014D] (AR v1) Copy OK

Track 7

Filename F:\EAC Rips\Bob Moses - When Elephants Dream of Music [FLAC]\07 - Embraceable Jew.wav

Pre-gap length 0:00:03.10

Peak level 45.8 % Extraction speed 8.1 X Track quality 100.0 % Copy CRC 3AF03A72 Accurately ripped (confidence 3) [A35BD0A4] (AR v1) Copy OK

Track 8

Filename F:\EAC Rips\Bob Moses - When Elephants Dream of Music [FLAC]\08 - Bugs Bunny.wav

Pre-gap length 0:00:02.33

Peak level 98.9 % Extraction speed 8.9 X Track quality 100.0 % Copy CRC 2A03E5C2 Accurately ripped (confidence 3) [C799901E] (AR v1) Copy OK

Track 9

Filename F:\EAC Rips\Bob Moses - When Elephants Dream of Music [FLAC]\09 - Black Orchid.wav

Pre-gap length 0:00:04.35

Peak level 76.5 % Extraction speed 7.9 X Track quality 99.9 % Copy CRC D6D483E4 Cannot be verified as accurate (confidence 3) [3365CD5A], AccurateRip returned [350C46D8] (AR v2) Copy OK

Track 10

Filename F:\EAC Rips\Bob Moses - When Elephants Dream of Music [FLAC]\10 - Disappearing Blues.wav

Pre-gap length 0:00:00.08

Peak level 85.9 % Extraction speed 7.7 X Track quality 100.0 % Copy CRC E791BCD7 Accurately ripped (confidence 3) [E2A50DC7] (AR v1) Copy OK

Track 11

Filename F:\EAC Rips\Bob Moses - When Elephants Dream of Music [FLAC]\11 - Ripped Van Twinkle.wav

Pre-gap length 0:00:01.67

Peak level 59.5 % Extraction speed 8.8 X Track quality 99.9 % Copy CRC 05A27912 Accurately ripped (confidence 3) [AB6F0DD9] (AR v1) Copy OK

Track 12

Filename F:\EAC Rips\Bob Moses - When Elephants Dream of Music [FLAC]\12 - Blame It on the Egg.wav

Pre-gap length 0:00:02.65

Peak level 81.1 % Extraction speed 6.9 X Track quality 100.0 % Copy CRC 0FE8AB9A Accurately ripped (confidence 3) [7FD6135A] (AR v1) Copy OK

Track 13

Filename F:\EAC Rips\Bob Moses - When Elephants Dream of Music [FLAC]\13 - The River.wav

Pre-gap length 0:00:02.63

Peak level 49.2 % Extraction speed 8.1 X Track quality 99.9 % Copy CRC 6FCCBD3E Accurately ripped (confidence 3) [1BC924A7] (AR v1) Copy OK

12 track(s) accurately ripped 1 track(s) could not be verified as accurate

Some tracks could not be verified as accurate

No errors occurred

End of status report
 
REM GENRE JazzREM DATE 1982REM DISCID A90FAB0DREM COMMENT "ExactAudioCopy v1.0b3"PERFORMER "Bob Moses"TITLE "When Elephants Dream of Music"FILE "01 - Trevor.wav" WAVE TRACK 01 AUDIO TITLE "Trevor" PERFORMER "Bob Moses" PREGAP 00:00:32 INDEX 01 00:00:00 TRACK 02 AUDIO TITLE "Piccolo and Lulu" PERFORMER "Bob Moses" INDEX 00 05:00:60FILE "02 - Piccolo and Lulu.wav" WAVE INDEX 01 00:00:00 TRACK 03 AUDIO TITLE "Everybody Knows You When You're Up and In" PERFORMER "Bob Moses" INDEX 00 02:52:17FILE "03 - Everybody Knows You When You're Up and In.wav" WAVE INDEX 01 00:00:00 TRACK 04 AUDIO TITLE "Lava Flow" PERFORMER "Bob Moses" INDEX 00 04:28:55FILE "04 - Lava Flow.wav" WAVE INDEX 01 00:00:00 TRACK 05 AUDIO TITLE "Happy to be Here Today" PERFORMER "Bob Moses" INDEX 00 09:20:15FILE "05 - Happy to be Here Today.wav" WAVE INDEX 01 00:00:00 TRACK 06 AUDIO TITLE "For Miles" PERFORMER "Bob Moses" INDEX 00 02:43:20FILE "06 - For Miles.wav" WAVE INDEX 01 00:00:00 TRACK 07 AUDIO TITLE "Embraceable Jew" PERFORMER "Bob Moses" INDEX 00 07:11:25FILE "07 - Embraceable Jew.wav" WAVE INDEX 01 00:00:00 TRACK 08 AUDIO TITLE "Bugs Bunny" PERFORMER "Bob Moses" INDEX 00 04:55:15FILE "08 - Bugs Bunny.wav" WAVE INDEX 01 00:00:00 TRACK 09 AUDIO TITLE "Black Orchid" PERFORMER "Bob Moses" INDEX 00 08:29:20FILE "09 - Black Orchid.wav" WAVE INDEX 01 00:00:00 TRACK 10 AUDIO TITLE "Disappearing Blues" PERFORMER "Bob Moses" INDEX 00 05:59:32FILE "10 - Disappearing Blues.wav" WAVE INDEX 01 00:00:00 TRACK 11 AUDIO TITLE "Ripped Van Twinkle" PERFORMER "Bob Moses" INDEX 00 02:10:70FILE "11 - Ripped Van Twinkle.wav" WAVE INDEX 01 00:00:00 TRACK 12 AUDIO TITLE "Blame It on the Egg" PERFORMER "Bob Moses" INDEX 00 07:23:00FILE "12 - Blame It on the Egg.wav" WAVE INDEX 01 00:00:00 TRACK 13 AUDIO TITLE "The River" PERFORMER "Bob Moses" INDEX 00 01:19:05FILE "13 - The River.wav" WAVE INDEX 01 00:00:00
 
d:\>d:\aucdtect -d/-m0 d:\zzz\*.wavauCDtect: CD records authenticity detector, version 0.8.2Copyright (c) 2004 Oleg Berngardt. All rights reserved.Copyright (c) 2004 Alexander Djourik. All rights reserved.------------------------------------------------------------Processing file: [01. Trevor.wav]

------------------------------------------------------------This track looks like CDDA with probability 100%

------------------------------------------------------------Processing file: [02. Piccolo and Lulu.wav]

------------------------------------------------------------This track looks like CDDA with probability 100%

------------------------------------------------------------Processing file: [03. Everybody Knows You When You're Up and In.wav]

------------------------------------------------------------This track looks like CDDA with probability 100%

------------------------------------------------------------Processing file: [04. Lava Flow.wav]

------------------------------------------------------------This track looks like CDDA with probability 99%

------------------------------------------------------------Processing file: [05. Happy to be Here Today.wav]

------------------------------------------------------------This track looks like CDDA with probability 100%

------------------------------------------------------------Processing file: [06. For Miles.wav]

------------------------------------------------------------This track looks like CDDA with probability 100%

------------------------------------------------------------Processing file: [07. Embraceable Jew.wav]

------------------------------------------------------------This track looks like CDDA with probability 100%

------------------------------------------------------------Processing file: [08. Bugs Bunny.wav]

------------------------------------------------------------This track looks like CDDA with probability 100%

------------------------------------------------------------Processing file: [09. Black Orchid.wav]

------------------------------------------------------------This track looks like CDDA with probability 100%

------------------------------------------------------------Processing file: [10. Disappearing Blues.wav]

------------------------------------------------------------This track looks like CDDA with probability 100%

------------------------------------------------------------Processing file: [11. Ripped Van Twinkle.wav]

------------------------------------------------------------This track looks like CDDA with probability 99%

------------------------------------------------------------Processing file: [12. Blame It on the Egg.wav]

------------------------------------------------------------This track looks like CDDA with probability 100%

------------------------------------------------------------Processing file: [13. The River.wav]

------------------------------------------------------------This track looks like CDDA with probability 100%

------------------------------------------------------------Final Conclusion:------------------------------------------------------------These tracks looks like CDDA with probability 100%
Bass [Acoustic] – Michael Formanek
Bass [Electric] – Paul Socolow (tracks: 6), Steve Swallow
Contrabass [Electric], Clarinet, Tuba – Howard Johnson
Cornet – Terumasa Hino
Drums – Bob Weiner (tracks: 6)
Flute [Bass] – Jeremy Steig (tracks: 13)
Guitar [Electric] – Bill Frisell
Percussion – Aiyb Dieng, Joe Bonadio
Percussion, Voice – Naná Vasconcelos
Producer – Bob Moses, Pat Metheny
Saxophone [Alto] – David Gross
Saxophone [Tenor, Soprano] – Doc Halliday
Saxophone [Tenor] – Jim Pepper
Synthesizer – Lyle Mays
Trombone, Trombone [Bass] – Barry Rogers
Trumpet – Chris Rogers
Vibraphone, Marimba – David Friedman
Voice – Bemshi Shearer (tracks: 4, 13), Jahnet Levatin (tracks: 13), Jeanne Lee (tracks: 13), Marion Cowings (tracks: 4, 13), Paula Potocki (tracks: 13), Sheila Jordan (tracks: 5), Toni Wilson (tracks: 13)


Трекер:  [ 28-Янв-2012 14:50 ]

  

Скачать .torrent

Размер .torrent файла 14 KB


Размер: 338 MB
Хэш (hash) релиза: b8d630de1f1ab408f0a8a440bb7c0faa42eb76

Еще никто не оставлял запись к записи скачать торрент Bob Moses - When Elephants Dream Of Music - 1983, FLAC . Будь первым!

!Обратная связь